×

¿Problemas para descargar con Mozilla, EDGE? Deshabilita la opción "Abrir vinculos en una pestaña nueva" tal como lo muestra ésta imagen.

Peaky Blinders (2013) Primera Temporada REMUX 1080p Latino – CMHDD

305 vistas

Información de Peaky Blinders (2013) Primera Temporada REMUX 1080p Latino – CMHDD

Datos de la película

  • Calidad: Full 1080p
  • Audio: Se especifica abajo de la Sinopsis
  • Subtitulos: Español Latino SRT- FORZADOS SRT
  • Resolución: 1920x1080p
  • Formato: MKV
  • Codec: H.264
  • Encoder: Dracarys
  • Mediainfo: Clic para Mostrar Datos Ver
  • Format                      : Matroska
    Format version              : Version 4
    File size                   : 12.6 GiB
    Duration                    : 57 min 9 s
    Overall bit rate mode       : Variable
    Overall bit rate            : 31.5 Mb/s
    Movie name                  : Peaky Blinders (2013) [S01E01] REMUX 1080p Latino - CMHDD
    Encoded date                : UTC 2021-02-07 04:09:46
    Writing application         : mkvmerge v51.0.0 ('I Wish') 64-bit
    Writing library             : libebml v1.4.0 + libmatroska v1.6.2

    Video
    ID                          : 1
    Format                      : AVC
    Format/Info                 : Advanced Video Codec
    Format profile              : High@L4.1
    Format settings             : CABAC / 4 Ref Frames
    Format settings, CABAC      : Yes
    Format settings, Reference  : 4 frames
    Codec ID                    : V_MPEG4/ISO/AVC
    Duration                    : 56 min 59 s
    Bit rate mode               : Variable
    Bit rate                    : 29.8 Mb/s
    Maximum bit rate            : 33.0 Mb/s
    Width                       : 1 920 pixels
    Height                      : 1 080 pixels
    Display aspect ratio        : 16:9
    Frame rate mode             : Constant
    Frame rate                  : 25.000 FPS
    Color space                 : YUV
    Chroma subsampling          : 4:2:0
    Bit depth                   : 8 bits
    Scan type                   : MBAFF
    Scan type, store method     : Interleaved fields
    Scan order                  : Top Field First
    Bits/(Pixel*Frame)          : 0.575
    Stream size                 : 11.9 GiB (94%)
    Default                     : No
    Forced                      : No

    Audio #1
    ID                          : 2
    Format                      : AC-3
    Format/Info                 : Audio Coding 3
    Commercial name             : Dolby Digital
    Codec ID                    : A_AC3
    Duration                    : 57 min 8 s
    Bit rate mode               : Constant
    Bit rate                    : 192 kb/s
    Channel(s)                  : 2 channels
    Channel layout              : L R
    Sampling rate               : 48.0 kHz
    Frame rate                  : 31.250 FPS (1536 SPF)
    Compression mode            : Lossy
    Delay relative to video     : 1 s 0 ms
    Stream size                 : 78.5 MiB (1%)
    Language                    : Spanish
    Service kind                : Complete Main
    Default                     : Yes
    Forced                      : No

    Audio #2
    ID                          : 3
    Format                      : DTS XLL
    Format/Info                 : Digital Theater Systems
    Commercial name             : DTS-HD Master Audio
    Codec ID                    : A_DTS
    Duration                    : 56 min 59 s
    Bit rate mode               : Variable
    Bit rate                    : 1 603 kb/s
    Channel(s)                  : 2 channels
    Channel layout              : L R
    Sampling rate               : 48.0 kHz
    Frame rate                  : 93.750 FPS (512 SPF)
    Bit depth                   : 16 bits
    Compression mode            : Lossless
    Stream size                 : 653 MiB (5%)
    Language                    : English
    Default                     : No
    Forced                      : No

    Text #1
    ID                          : 4
    Format                      : UTF-8
    Codec ID                    : S_TEXT/UTF8
    Codec ID/Info               : UTF-8 Plain Text
    Duration                    : 35 min 56 s
    Bit rate                    : 4 b/s
    Count of elements           : 36
    Stream size                 : 1.06 KiB (0%)
    Language                    : Spanish
    Default                     : Yes
    Forced                      : No

    Text #2
    ID                          : 5
    Format                      : UTF-8
    Codec ID                    : S_TEXT/UTF8
    Codec ID/Info               : UTF-8 Plain Text
    Duration                    : 55 min 36 s
    Bit rate                    : 52 b/s
    Count of elements           : 630
    Stream size                 : 21.5 KiB (0%)
    Language                    : Spanish
    Default                     : No
    Forced                      : No

    Menu
    00:00:00.000                : en:00:00:00.000
    00:09:46.600                : en:00:09:46.600
    00:24:02.680                : en:00:24:02.680
    00:34:29.920                : en:00:34:29.920
    00:46:55.640                : en:00:46:55.640

  • Peso: 73.3 GiB

Sinopsis

Thomas Shelby, líder de la banda de los Peaky Blinders, se hace con un cargamento de armas de la fábrica local. Thomas quiere tener dichas armas para así poder aumentar el poder de su banda, aunque su tía le pide que se deshaga de ellas. Su sueño, tener un negocio legal de carreras de caballos, y el acercarse a el único hombre (Billy Kimber) que puede ayudarle a conseguirlo le crea numerosos conflictos. Por otro lado, a Brimingham llega un detective de Belfast con un objetivo. Este detective, llamado Chester Campbel, quiere terminar con las bandas violentas que hacen lo que quieren en la ciudad.

 

Latino: AC3 2.0  –  Ingles: DTS-HD MA 2.0

Ficha técnica

Video trailer de la película

Enlaces de descarga

Rip de Bluray

Descargar Peaky Blinders (2013) Primera Temporada REMUX 1080p Latino – CMHDD


Aportes de DPeliculasHDmega la pass es:dpeliculashdmega.org Aportes de CinemaniaHD la pass es:cinemaniahdd.com
Guardado en : Crimen , Drama

Películas relacionadas

descargar Peaky Blinders (2013) Primera Temporada REMUX 1080p Latino – CMHDD Full 1080p 1080p gratis, Peaky Blinders (2013) Primera Temporada REMUX 1080p Latino – CMHDD Full 1080p mega 1 link, Peaky Blinders (2013) Primera Temporada REMUX 1080p Latino – CMHDD Full 1080p pelicula completa, descargar Peaky Blinders (2013) Primera Temporada REMUX 1080p Latino – CMHDD Full 1080p gratis en mega.

Peaky Blinders (2013) Primera Temporada REMUX 1080p Latino – CMHDD pelicula full hd, Peaky Blinders (2013) Primera Temporada REMUX 1080p Latino – CMHDD mega latino, Peaky Blinders (2013) Primera Temporada REMUX 1080p Latino – CMHDD 4k latino, Peaky Blinders (2013) Primera Temporada REMUX 1080p Latino – CMHDD pelicula completa, Peaky Blinders (2013) Primera Temporada REMUX 1080p Latino – CMHDD descargar gratis, descargar Peaky Blinders (2013) Primera Temporada REMUX 1080p Latino – CMHDD pelicula latino, Peaky Blinders (2013) Primera Temporada REMUX 1080p Latino – CMHDD 1 link mega, Peaky Blinders (2013) Primera Temporada REMUX 1080p Latino – CMHDD 1 link google drive, Peaky Blinders (2013) Primera Temporada REMUX 1080p Latino – CMHDD hd 1080p latino.
Comentarios 0