×

¿Problemas para descargar con Mozilla, EDGE? Deshabilita la opción "Abrir vinculos en una pestaña nueva" tal como lo muestra ésta imagen.

PAW Patrol: La Super Pelicula (2023) REMUX 1080p Latino

116 vistas

Información de PAW Patrol: La Super Pelicula (2023) REMUX 1080p Latino

Datos de la película

  • Calidad: Full 1080p
  • Audio: Se especifica abajo de la Sinopsis
  • Subtitulos: Español Latino PGS - Ingles PGS
  • Resolución: 1920x1080p
  • Formato: MKV
  • Codec: H.264
  • Encoder: Melkor
  • Mediainfo: Clic para Mostrar Datos Ver
  • PAW Patrol. La Super Pelicula (2023) REMUX 1080p Latino.mkv
    Format                      : Matroska
    Format version              : Version 4
    File size                   : 22.1 GiB
    Duration                    : 1 h 27 min
    Overall bit rate mode       : Variable
    Overall bit rate            : 36.1 Mb/s
    Movie name                  : PAW Patrol. The Mighty Movie (2023) CinemaniaHDD.Net
    Encoded date                : UTC 2023-12-14 03:30:34
    Writing application         : mkvmerge v56.1.0 ('My Friend') 64-bit
    Writing library             : libebml v1.4.2 + libmatroska v1.6.4
    Cover                       : Yes
    Attachments                 : CINEMANIAHD.png / cover.jpg
    Site                        : CinemaniaHDD.Net
    Uploader                    : Melkor

    Video
    ID                          : 1
    ID in the original source m : 4113 (0x1011)
    Format                      : AVC
    Format/Info                 : Advanced Video Codec
    Format profile              : High@L4.1
    Format settings             : CABAC / 4 Ref Frames
    Format settings, CABAC      : Yes
    Format settings, Reference  : 4 frames
    Codec ID                    : V_MPEG4/ISO/AVC
    Duration                    : 1 h 27 min
    Bit rate mode               : Variable
    Bit rate                    : 31.7 Mb/s
    Maximum bit rate            : 33.0 Mb/s
    Width                       : 1 920 pixels
    Height                      : 1 080 pixels
    Display aspect ratio        : 16:9
    Frame rate mode             : Constant
    Frame rate                  : 23.976 (24000/1001) FPS
    Color space                 : YUV
    Chroma subsampling          : 4:2:0
    Bit depth                   : 8 bits
    Scan type                   : Progressive
    Bits/(Pixel*Frame)          : 0.638
    Stream size                 : 19.4 GiB (88%)
    Title                       : REMUX HD1080p [CinemaniaHDD]
    Default                     : Yes
    Forced                      : No
    Original source medium      : Blu-ray

    Audio #1
    ID                          : 2
    ID in the original source m : 4357 (0x1105)
    Format                      : AC-3
    Format/Info                 : Audio Coding 3
    Commercial name             : Dolby Digital
    Codec ID                    : A_AC3
    Duration                    : 1 h 27 min
    Bit rate mode               : Constant
    Bit rate                    : 640 kb/s
    Channel(s)                  : 6 channels
    Channel layout              : L R C LFE Ls Rs
    Sampling rate               : 48.0 kHz
    Frame rate                  : 31.250 FPS (1536 SPF)
    Compression mode            : Lossy
    Stream size                 : 401 MiB (2%)
    Title                       : Español Latino [CinemaniaHDD]
    Language                    : Spanish
    Service kind                : Complete Main
    Default                     : Yes
    Forced                      : No
    Original source medium      : Blu-ray

    Audio #2
    ID                          : 3
    ID in the original source m : 4352 (0x1100)
    Format                      : MLP FBA 16-ch
    Format/Info                 : Meridian Lossless Packing FBA with 16-channel presentation
    Commercial name             : Dolby TrueHD with Dolby Atmos
    Codec ID                    : A_TRUEHD
    Duration                    : 1 h 27 min
    Bit rate mode               : Variable
    Bit rate                    : 3 006 kb/s
    Maximum bit rate            : 4 506 kb/s
    Channel(s)                  : 8 channels
    Channel layout              : L R C LFE Ls Rs Lb Rb
    Sampling rate               : 48.0 kHz
    Frame rate                  : 1 200.000 FPS (40 SPF)
    Compression mode            : Lossless
    Stream size                 : 1.84 GiB (8%)
    Title                       : Ingles [CinemaniaHDD]
    Language                    : English
    Default                     : No
    Forced                      : No
    Original source medium      : Blu-ray
    Number of dynamic objects   : 11
    Bed channel count           : 1 channel
    Bed channel configuration   : LFE

    Audio #3
    ID                          : 4
    ID in the original source m : 4352 (0x1100)
    Format                      : AC-3
    Format/Info                 : Audio Coding 3
    Commercial name             : Dolby Digital
    Codec ID                    : A_AC3
    Duration                    : 1 h 27 min
    Bit rate mode               : Constant
    Bit rate                    : 640 kb/s
    Channel(s)                  : 6 channels
    Channel layout              : L R C LFE Ls Rs
    Sampling rate               : 48.0 kHz
    Frame rate                  : 31.250 FPS (1536 SPF)
    Compression mode            : Lossy
    Stream size                 : 401 MiB (2%)
    Title                       : Ingles AC3 [CinemaniaHDD]
    Language                    : English
    Service kind                : Complete Main
    Default                     : No
    Forced                      : No
    Original source medium      : Blu-ray

    Text #1
    ID                          : 5
    ID in the original source m : 4613 (0x1205)
    Format                      : PGS
    Muxing mode                 : zlib
    Codec ID                    : S_HDMV/PGS
    Codec ID/Info               : Picture based subtitle format used on BDs/HD-DVDs
    Duration                    : 1 h 26 min
    Bit rate                    : 26.5 kb/s
    Count of elements           : 1674
    Stream size                 : 16.3 MiB (0%)
    Title                       : Español-PGS [CinemaniaHDD]
    Language                    : Spanish
    Default                     : No
    Forced                      : No
    Original source medium      : Blu-ray

    Text #2
    ID                          : 6
    ID in the original source m : 4608 (0x1200)
    Format                      : PGS
    Muxing mode                 : zlib
    Codec ID                    : S_HDMV/PGS
    Codec ID/Info               : Picture based subtitle format used on BDs/HD-DVDs
    Duration                    : 1 h 26 min
    Bit rate                    : 26.8 kb/s
    Count of elements           : 1592
    Stream size                 : 16.5 MiB (0%)
    Title                       : Ingles-PGS [CinemaniaHDD]
    Language                    : English
    Default                     : No
    Forced                      : No
    Original source medium      : Blu-ray

    Text #3
    ID                          : 7
    Format                      : UTF-8
    Codec ID                    : S_TEXT/UTF8
    Codec ID/Info               : UTF-8 Plain Text
    Duration                    : 1 h 26 min
    Bit rate                    : 0 b/s
    Count of elements           : 5
    Stream size                 : 115 Bytes (0%)
    Title                       : Forzados-SRT [CinemaniaHDD]
    Language                    : Spanish
    Default                     : Yes
    Forced                      : No

    Text #4
    ID                          : 8
    Format                      : UTF-8
    Codec ID                    : S_TEXT/UTF8
    Codec ID/Info               : UTF-8 Plain Text
    Duration                    : 1 h 26 min
    Bit rate                    : 41 b/s
    Count of elements           : 835
    Stream size                 : 26.5 KiB (0%)
    Title                       : Español-SRT [CinemaniaHDD]
    Language                    : Spanish
    Default                     : No
    Forced                      : No

    Menu
    00:00:00.000                : Chapter 01
    00:08:04.901                : Chapter 02
    00:15:38.854                : Chapter 03
    00:23:25.862                : Chapter 04
    00:31:25.884                : Chapter 05
    00:38:12.790                : Chapter 06
    00:47:17.543                : Chapter 07
    00:55:21.568                : Chapter 08
    01:04:14.308                : Chapter 09
    01:12:08.282                : Chapter 10
    01:18:58.358                : Chapter 11

  • Peso: 22.1 GiB

Sinopsis

Descargar PAW Patrol: La Super Pelicula (2023) REMUX 1080p Latino. Cuando un meteorito mágico se estrella en Ciudad Aventura, los cachorros de la Patrulla Canina consiguen unos superpoderes que los transforman en ¡Los PODEROSOS CACHORROS! Para Skye, la más pequeña del equipo, sus nuevos poderes son un sueño hecho realidad. Pero las cosas se complican cuando Humdinger, el archienemigo de los cachorros que acaba de fugarse de la cárcel, se une a Victoria Vance, una desquiciada científica obsesionada con los meteoritos, y forman una alianza para robar los superpoderes y convertirse en supervillanos. Con el destino de Ciudad Aventura al filo del abismo, los Poderosos Cachorros tendrán que detener a los supervillanos antes de que sea demasiado tarde, y Skye descubrirá que hasta la más pequeña del equipo puede ser la que determine el resultado.

Español AC3 5.1 BD – Ingles TrueHD 7.1 & Core AC3 5.1 BD

Ficha técnica

Video trailer de la película

Enlaces de descarga

Rip de Bluray

Descargar PAW Patrol: La Super Pelicula (2023) REMUX 1080p Latino




Aportes de DPeliculasHDmega la pass es:dpeliculashdmega.org Aportes de CinemaniaHD la pass es:cinemaniahdd.com Aportes recientes:cinemaniahdd.net

Películas relacionadas

  • iZombie (2015) Temporada 01 REMUX 1080p Latino

    iZombie (2015) Temporada 01 REMUX 1080p Latino

    2015
    iZombie (2015) Temporada 01 REMUX 1080p Latino

    0h 42m 2015

    Descargar iZombie (2015) Temporada 01 REMUX 1080p Latino. Gira en torno a una estudiante de medicina...

    Director: Rob Thomas

    Género: Crimen

    Actores: Rose McIver

  • Good Burger 2 (2023) HD 1080p Latino

    Good Burger 2 (2023) HD 1080p Latino

    2023
    Good Burger 2 (2023) HD 1080p Latino

    1h 31m 2023

    Descargar Good Burger 2 (2023) HD 1080p Latino. Después de que su último invento falla, Ed le da la...

    Director: Ross Novie

    Género: Comedia

    Actores: Zoe Saldana

  • Good Burger 2 (2023) PLACEBO Full HD 1080p Latino

    Good Burger 2 (2023) PLACEBO Full HD 1080p Latino

    2023
    Good Burger 2 (2023) PLACEBO Full HD 1080p Latino

    1h 31m 2023

    Descargar Good Burger 2 (2023) PLACEBO Full HD 1080p Latino. Después de que su último invento falla,...

    Director: Ross Novie

    Género: Comedia

    Actores: Zoe Saldana

  • Good Burger 2 (2023) REMUX 1080p Latino

    Good Burger 2 (2023) REMUX 1080p Latino

    2023
    Good Burger 2 (2023) REMUX 1080p Latino

    1h 31m 2023

    Descargar Good Burger 2 (2023) REMUX 1080p Latino. Después de que su último invento falla, Ed le da...

    Director: Ross Novie

    Género: Comedia

    Actores: Zoe Saldana

descargar PAW Patrol: La Super Pelicula (2023) REMUX 1080p Latino Full 1080p 1080p gratis, PAW Patrol: La Super Pelicula (2023) REMUX 1080p Latino Full 1080p mega 1 link, PAW Patrol: La Super Pelicula (2023) REMUX 1080p Latino Full 1080p pelicula completa, descargar PAW Patrol: La Super Pelicula (2023) REMUX 1080p Latino Full 1080p gratis en mega.

PAW Patrol: La Super Pelicula (2023) REMUX 1080p Latino pelicula full hd, PAW Patrol: La Super Pelicula (2023) REMUX 1080p Latino mega latino, PAW Patrol: La Super Pelicula (2023) REMUX 1080p Latino 4k latino, PAW Patrol: La Super Pelicula (2023) REMUX 1080p Latino pelicula completa, PAW Patrol: La Super Pelicula (2023) REMUX 1080p Latino descargar gratis, descargar PAW Patrol: La Super Pelicula (2023) REMUX 1080p Latino pelicula latino, PAW Patrol: La Super Pelicula (2023) REMUX 1080p Latino 1 link mega, PAW Patrol: La Super Pelicula (2023) REMUX 1080p Latino 1 link google drive, PAW Patrol: La Super Pelicula (2023) REMUX 1080p Latino hd 1080p latino.
Comentarios 0