×

¿Problemas para descargar con Mozilla, EDGE? Deshabilita la opción "Abrir vinculos en una pestaña nueva" tal como lo muestra ésta imagen.

PAW Patrol: La Super Pelicula (2023) HD 1080p Latino

203 vistas

Información de PAW Patrol: La Super Pelicula (2023) HD 1080p Latino

Datos de la película

  • Calidad: 1080p
  • Audio: Español Latino AC3 5.1 BLURAY - Ingles AC3 5.1 BLURAY
  • Subtitulos: Español Latino SRT- FORZADOS SRT
  • Resolución: 1920x800p
  • Formato: MKV
  • Codec: H.264
  • Encoder: Melkor
  • Mediainfo: Clic para Mostrar Datos Ver
  • PAW Patrol. La Super Pelicula (2023) HD 1080p Latino.mkv
    Format                      : Matroska
    Format version              : Version 4
    File size                   : 2.78 GiB
    Duration                    : 1 h 27 min
    Overall bit rate            : 4 545 kb/s
    Movie name                  : PAW Patrol. The Mighty Movie (2023) CinemaniaHDD.Net
    Encoded date                : UTC 2023-12-14 03:37:43
    Writing application         : mkvmerge v56.1.0 ('My Friend') 64-bit
    Writing library             : libebml v1.4.2 + libmatroska v1.6.4
    Cover                       : Yes
    Attachments                 : CINEMANIAHD.png / cover.jpg
    Site                        : CinemaniaHDD.Net
    Uploader                    : Melkor

    Video
    ID                          : 1
    Format                      : AVC
    Format/Info                 : Advanced Video Codec
    Format profile              : High@L4.1
    Format settings             : CABAC / 5 Ref Frames
    Format settings, CABAC      : Yes
    Format settings, Reference  : 5 frames
    Codec ID                    : V_MPEG4/ISO/AVC
    Duration                    : 1 h 27 min
    Bit rate                    : 3 500 kb/s
    Width                       : 1 920 pixels
    Height                      : 800 pixels
    Display aspect ratio        : 2.40:1
    Frame rate mode             : Constant
    Frame rate                  : 23.976 (24000/1001) FPS
    Color space                 : YUV
    Chroma subsampling          : 4:2:0
    Bit depth                   : 8 bits
    Scan type                   : Progressive
    Bits/(Pixel*Frame)          : 0.095
    Stream size                 : 2.12 GiB (76%)
    Title                       : HD1080p [CinemaniaHDD]
    Writing library             : x264 core 163 r3059 b684ebe0
    Encoding settings           : cabac=1 / ref=5 / deblock=1:1:1 / analyse=0x3:0x133 / me=umh / subme=9 / psy=1 / psy_rd=0.40:0.00 / mixed_ref=1 / me_range=16 / chroma_me=1 / trellis=2 / 8x8dct=1 / cqm=0 / deadzone=21,11 / fast_pskip=1 / chroma_qp_offset=-2 / threads=24 / lookahead_threads=2 / sliced_threads=0 / nr=0 / decimate=1 / interlaced=0 / bluray_compat=0 / constrained_intra=0 / bframes=5 / b_pyramid=2 / b_adapt=2 / b_bias=0 / direct=3 / weightb=1 / open_gop=0 / weightp=2 / keyint=240 / keyint_min=24 / scenecut=40 / intra_refresh=0 / rc_lookahead=60 / rc=abr / mbtree=1 / bitrate=3500 / ratetol=1.0 / qcomp=0.60 / qpmin=0 / qpmax=69 / qpstep=4 / vbv_maxrate=62500 / vbv_bufsize=78125 / nal_hrd=none / filler=0 / ip_ratio=1.40 / aq=1:0.60
    Default                     : Yes
    Forced                      : Yes
    Color range                 : Limited
    Color primaries             : BT.709
    Transfer characteristics    : BT.709
    Matrix coefficients         : BT.709

    Audio #1
    ID                          : 2
    ID in the original source m : 4357 (0x1105)
    Format                      : AC-3
    Format/Info                 : Audio Coding 3
    Commercial name             : Dolby Digital
    Codec ID                    : A_AC3
    Duration                    : 1 h 27 min
    Bit rate mode               : Constant
    Bit rate                    : 640 kb/s
    Channel(s)                  : 6 channels
    Channel layout              : L R C LFE Ls Rs
    Sampling rate               : 48.0 kHz
    Frame rate                  : 31.250 FPS (1536 SPF)
    Compression mode            : Lossy
    Delay relative to video     : -5 ms
    Stream size                 : 401 MiB (14%)
    Title                       : Español Latino [CinemaniaHDD]
    Language                    : Spanish
    Service kind                : Complete Main
    Default                     : Yes
    Forced                      : No
    Original source medium      : Blu-ray

    Audio #2
    ID                          : 3
    Format                      : AC-3
    Format/Info                 : Audio Coding 3
    Commercial name             : Dolby Digital
    Codec ID                    : A_AC3
    Duration                    : 1 h 27 min
    Bit rate mode               : Constant
    Bit rate                    : 448 kb/s
    Channel(s)                  : 6 channels
    Channel layout              : L R C LFE Ls Rs
    Sampling rate               : 48.0 kHz
    Frame rate                  : 31.250 FPS (1536 SPF)
    Compression mode            : Lossy
    Delay relative to video     : -5 ms
    Stream size                 : 281 MiB (10%)
    Title                       : Ingles [CinemaniaHDD]
    Language                    : English
    Service kind                : Complete Main
    Default                     : No
    Forced                      : No

    Text #1
    ID                          : 4
    Format                      : UTF-8
    Codec ID                    : S_TEXT/UTF8
    Codec ID/Info               : UTF-8 Plain Text
    Duration                    : 1 h 26 min
    Bit rate                    : 0 b/s
    Count of elements           : 5
    Stream size                 : 115 Bytes (0%)
    Title                       : Forzados-SRT [CinemaniaHDD]
    Language                    : Spanish
    Default                     : Yes
    Forced                      : No

    Text #2
    ID                          : 5
    Format                      : UTF-8
    Codec ID                    : S_TEXT/UTF8
    Codec ID/Info               : UTF-8 Plain Text
    Duration                    : 1 h 26 min
    Bit rate                    : 41 b/s
    Count of elements           : 835
    Stream size                 : 26.5 KiB (0%)
    Title                       : Español-SRT [CinemaniaHDD]
    Language                    : Spanish
    Default                     : No
    Forced                      : No

    Menu
    00:00:00.000                : Chapter 01
    00:08:04.901                : Chapter 02
    00:15:38.854                : Chapter 03
    00:23:25.862                : Chapter 04
    00:31:25.884                : Chapter 05
    00:38:12.790                : Chapter 06
    00:47:17.543                : Chapter 07
    00:55:21.568                : Chapter 08
    01:04:14.308                : Chapter 09
    01:12:08.282                : Chapter 10
    01:18:58.358                : Chapter 11

  • Peso: 2.78 GiB

Sinopsis

Descargar PAW Patrol: La Super Pelicula (2023) HD 1080p Latino. Cuando un meteorito mágico se estrella en Ciudad Aventura, los cachorros de la Patrulla Canina consiguen unos superpoderes que los transforman en ¡Los PODEROSOS CACHORROS! Para Skye, la más pequeña del equipo, sus nuevos poderes son un sueño hecho realidad. Pero las cosas se complican cuando Humdinger, el archienemigo de los cachorros que acaba de fugarse de la cárcel, se une a Victoria Vance, una desquiciada científica obsesionada con los meteoritos, y forman una alianza para robar los superpoderes y convertirse en supervillanos. Con el destino de Ciudad Aventura al filo del abismo, los Poderosos Cachorros tendrán que detener a los supervillanos antes de que sea demasiado tarde, y Skye descubrirá que hasta la más pequeña del equipo puede ser la que determine el resultado.

Ficha técnica

Video trailer de la película

Enlaces de descarga

Rip de Bluray

Descargar PAW Patrol: La Super Pelicula (2023) HD 1080p Latino




Aportes de DPeliculasHDmega la pass es:dpeliculashdmega.org Aportes de CinemaniaHD la pass es:cinemaniahdd.com Aportes recientes:cinemaniahdd.net

Películas relacionadas

descargar PAW Patrol: La Super Pelicula (2023) HD 1080p Latino 1080p 1080p gratis, PAW Patrol: La Super Pelicula (2023) HD 1080p Latino 1080p mega 1 link, PAW Patrol: La Super Pelicula (2023) HD 1080p Latino 1080p pelicula completa, descargar PAW Patrol: La Super Pelicula (2023) HD 1080p Latino 1080p gratis en mega.

PAW Patrol: La Super Pelicula (2023) HD 1080p Latino pelicula full hd, PAW Patrol: La Super Pelicula (2023) HD 1080p Latino mega latino, PAW Patrol: La Super Pelicula (2023) HD 1080p Latino 4k latino, PAW Patrol: La Super Pelicula (2023) HD 1080p Latino pelicula completa, PAW Patrol: La Super Pelicula (2023) HD 1080p Latino descargar gratis, descargar PAW Patrol: La Super Pelicula (2023) HD 1080p Latino pelicula latino, PAW Patrol: La Super Pelicula (2023) HD 1080p Latino 1 link mega, PAW Patrol: La Super Pelicula (2023) HD 1080p Latino 1 link google drive, PAW Patrol: La Super Pelicula (2023) HD 1080p Latino hd 1080p latino.
Comentarios 0