Patriots Day (2016) 4K HDR Latino

906 vistas
1 estrella2 estrellas3 estrellas4 estrellas5 estrellas (Ninguna valoración todavía)
Cargando…

Información de Patriots Day (2016) 4K HDR Latino

Datos de la película

  • Calidad: 4K HDR
  • Audio: Español Latino AC3 5.1 BLURAY - Ingles DTS 5.1 BLURAY
  • Subtitulos: Español Latino PGS - Ingles PGS
  • Resolución: 3840x1600p
  • Formato: MKV
  • Codec: H.265
  • Encoder: Dracarys
  • Mediainfo: Clic para Mostrar Datos Ver
  • Format                                   : Matroska
    Format version                           : Version 4 / Version 2
    File size                                : 19.1 GiB
    Duration                                 : 2 h 13 min
    Overall bit rate                         : 20.5 Mb/s
    Movie name                               : CinemaniaHDD.com
    Encoded date                             : UTC 2018-03-20 05:52:29
    Writing application                      : mkvmerge v15.0.0 ('Duel with the Devil') 64-bit
    Writing library                          : libebml v1.3.5 + libmatroska v1.4.5

    Video
    ID                                       : 1
    Format                                   : HEVC
    Format/Info                              : High Efficiency Video Coding
    Codec ID                                 : V_MPEGH/ISO/HEVC
    Duration                                 : 2 h 13 min
    Bit rate                                 : 18.3 Mb/s
    Width                                    : 3 840 pixels
    Height                                   : 1 600 pixels
    Display aspect ratio                     : 2.40:1
    Frame rate mode                          : Constant
    Frame rate                               : 23.976 (24000/1001) FPS
    Bits/(Pixel*Frame)                       : 0.124
    Stream size                              : 17.0 GiB (89%)
    Title                                    : Patriots Day (2016) 4K HDR Latino
    Language                                 : English
    Default                                  : Yes
    Forced                                   : No

    Audio #1
    ID                                       : 2
    Format                                   : AC-3
    Format/Info                              : Audio Coding 3
    Format settings, Endianness              : Big
    Codec ID                                 : A_AC3
    Duration                                 : 2 h 13 min
    Bit rate mode                            : Constant
    Bit rate                                 : 640 kb/s
    Channel(s)                               : 6 channels
    Channel positions                        : Front: L C R, Side: L R, LFE
    Sampling rate                            : 48.0 kHz
    Frame rate                               : 31.250 FPS (1536 SPF)
    Bit depth                                : 16 bits
    Compression mode                         : Lossy
    Stream size                              : 610 MiB (3%)
    Language                                 : Spanish
    Service kind                             : Complete Main
    Default                                  : Yes
    Forced                                   : No

    Audio #2
    ID                                       : 3
    Format                                   : DTS
    Format/Info                              : Digital Theater Systems
    Mode                                     : 16
    Format settings, Endianness              : Big
    Codec ID                                 : A_DTS
    Duration                                 : 2 h 13 min
    Bit rate mode                            : Constant
    Bit rate                                 : 1 509 kb/s
    Channel(s)                               : 6 channels
    Channel positions                        : Front: L C R, Side: L R, LFE
    Sampling rate                            : 48.0 kHz
    Frame rate                               : 93.750 FPS (512 SPF)
    Bit depth                                : 24 bits
    Compression mode                         : Lossy
    Stream size                              : 1.40 GiB (7%)
    Language                                 : English
    Default                                  : No
    Forced                                   : No

    Text #1
    ID                                       : 4
    Format                                   : UTF-8
    Codec ID                                 : S_TEXT/UTF8
    Codec ID/Info                            : UTF-8 Plain Text
    Duration                                 : 2 h 12 min
    Bit rate                                 : 74 b/s
    Count of elements                        : 1857
    Stream size                              : 72.9 KiB (0%)
    Language                                 : Spanish
    Default                                  : No
    Forced                                   : No

    Text #2
    ID                                       : 5
    Format                                   : PGS
    Muxing mode                              : zlib
    Codec ID                                 : S_HDMV/PGS
    Codec ID/Info                            : Picture based subtitle format used on BDs/HD-DVDs
    Duration                                 : 2 h 12 min
    Bit rate                                 : 47.4 kb/s
    Count of elements                        : 4050
    Stream size                              : 44.9 MiB (0%)
    Language                                 : English
    Default                                  : No
    Forced                                   : No

    Text #3
    ID                                       : 6
    Format                                   : PGS
    Muxing mode                              : zlib
    Codec ID                                 : S_HDMV/PGS
    Codec ID/Info                            : Picture based subtitle format used on BDs/HD-DVDs
    Duration                                 : 2 h 12 min
    Bit rate                                 : 41.6 kb/s
    Count of elements                        : 3684
    Stream size                              : 39.4 MiB (0%)
    Language                                 : Spanish
    Default                                  : No
    Forced                                   : No

  • Peso: 19.1 GiB

Sinopsis

Basada en el atentado de la maratón de Bostón, Patriot’s Day cuenta la historia del oficial de policía Ed Davis, que investiga los acontecimientos que se saldaron con la muerte de un terrorista y la detención de otro, ofreciendo una exhaustiva narración de la persecución que se llevó a cabo por toda la ciudad para dar caza a los causantes del atentado.

Ficha técnica

Video trailer de la película

Enlaces de descarga

Rip de Bluray

Descargar Patriots Day (2016) 4K HDR Latino




Aportes de DPeliculasHDmega la pass es:dpeliculashdmega.org Aportes de CinemaniaHD la pass es:cinemaniahdd.com
Guardado en : 4K HDR , 4K UHD , Crimen , Drama , Suspense

Películas relacionadas

  • The Dirt (2019) NF WEB-DL 1080p Latino

    2019
    The Dirt (2019) NF WEB-DL 1080p Latino

    0.0 0h 0m 2019

    Basada en la autobiografía publicada por el grupo Mötley Crüe en 2001, esta obra refleja la historia...

    Director: Jeff Tremaine

    Género: Drama

    Actores: Vince Mattis

  • WiFi Ralph (2018) 4K UHD HDR Latino

    2018
    WiFi Ralph (2018) 4K UHD HDR Latino

    5.0 1h 52m 2018

    Descargar WiFi Ralph (2018) 4K UHD HDR Latino, Mega, Google Drive. Ralph sale de los recreativos y......

    Director: Rich Moore

    Género: 4K HDR

    Actores: Wayne Sermon

  • Las Dos Reinas (2018) 4K UHD HDR Latino

    2018
    Las Dos Reinas (2018) 4K UHD HDR Latino

    5.0 2h 5m 2018

    Descargar Las Dos Reinas (2018) 4K UHD HDR Latino, Mega, Google Drive. Dos mujeres rivales en el poder...

    Director: Josie Rourke

    Género: 4K HDR

    Actores: Thom Petty

Comentarios 2
  • leandro - 11 mayo, 2018

    como solicitar permiso de acceso?