×

¿Problemas para descargar con Mozilla, EDGE? Deshabilita la opción "Abrir vinculos en una pestaña nueva" tal como lo muestra ésta imagen.

Patriot Games (1992) REMUX 4K HDR Latino – CMHDD

182 vistas

Información de Patriot Games (1992) REMUX 4K HDR Latino – CMHDD

Datos de la película

  • Calidad:
  • Audio: Español Latino AC3 5.1 BLURAY - Ingles DTS 5.1 BLURAY
  • Subtitulos: Español Latino PGS
  • Resolución: 3840x2160p
  • Formato: MKV
  • Codec: H.264
  • Encoder: Dracarys
  • Mediainfo: Clic para Mostrar Datos Ver
  • Format                      : Matroska
    Format version              : Version 4
    File size                   : 50.0 GiB
    Duration                    : 1 h 56 min
    Overall bit rate mode       : Variable
    Overall bit rate            : 61.3 Mb/s
    Movie name                  : Patriot Games (1992) REMUX 4K HDR Latino - CMHDD
    Encoded date                : UTC 2023-05-09 01:52:37
    Writing application         : mkvmerge v47.0.0 ('Black Flag') 64-bit
    Writing library             : libebml v1.3.10 + libmatroska v1.5.2

    Video
    ID                          : 1
    ID in the original source m : 4113 (0x1011)
    Format                      : HEVC
    Format/Info                 : High Efficiency Video Coding
    Format profile              : Main 10@L5.1@High
    HDR format                  : SMPTE ST 2086, HDR10 compatible
    Codec ID                    : V_MPEGH/ISO/HEVC
    Duration                    : 1 h 56 min
    Bit rate                    : 56.0 Mb/s
    Width                       : 3 840 pixels
    Height                      : 2 160 pixels
    Display aspect ratio        : 16:9
    Frame rate mode             : Constant
    Frame rate                  : 23.976 (24000/1001) FPS
    Color space                 : YUV
    Chroma subsampling          : 4:2:0 (Type 2)
    Bit depth                   : 10 bits
    Bits/(Pixel*Frame)          : 0.282
    Stream size                 : 45.6 GiB (91%)
    Language                    : English
    Default                     : No
    Forced                      : No
    Color range                 : Limited
    Color primaries             : BT.2020
    Transfer characteristics    : PQ
    Matrix coefficients         : BT.2020 non-constant
    Mastering display color pri : Display P3
    Mastering display luminance : min: 0.0050 cd/m2, max: 1000 cd/m2
    Maximum Content Light Level : 1000 cd/m2
    Maximum Frame-Average Light : 348 cd/m2
    Original source medium      : Blu-ray

    Audio #1
    ID                          : 2
    Format                      : DTS XLL
    Format/Info                 : Digital Theater Systems
    Commercial name             : DTS-HD Master Audio
    Codec ID                    : A_DTS
    Duration                    : 1 h 56 min
    Bit rate mode               : Variable
    Bit rate                    : 4 064 kb/s
    Channel(s)                  : 6 channels
    Channel layout              : C L R Ls Rs LFE
    Sampling rate               : 48.0 kHz
    Frame rate                  : 93.750 FPS (512 SPF)
    Bit depth                   : 24 bits
    Compression mode            : Lossless
    Stream size                 : 3.31 GiB (7%)
    Title                       : DTS-HD MA 5.1
    Language                    : English
    Default                     : No
    Forced                      : No

    Audio #2
    ID                          : 3
    ID in the original source m : 4352 (0x1100)
    Format                      : AC-3
    Format/Info                 : Audio Coding 3
    Commercial name             : Dolby Digital
    Codec ID                    : A_AC3
    Duration                    : 1 h 56 min
    Bit rate mode               : Constant
    Bit rate                    : 640 kb/s
    Channel(s)                  : 6 channels
    Channel layout              : L R C LFE Ls Rs
    Sampling rate               : 48.0 kHz
    Frame rate                  : 31.250 FPS (1536 SPF)
    Compression mode            : Lossy
    Stream size                 : 534 MiB (1%)
    Title                       : DD 5.1
    Language                    : English
    Service kind                : Complete Main
    Default                     : No
    Forced                      : No
    Original source medium      : Blu-ray

    Audio #3
    ID                          : 4
    ID in the original source m : 4356 (0x1104)
    Format                      : AC-3
    Format/Info                 : Audio Coding 3
    Commercial name             : Dolby Digital
    Codec ID                    : A_AC3
    Duration                    : 1 h 56 min
    Bit rate mode               : Constant
    Bit rate                    : 640 kb/s
    Channel(s)                  : 6 channels
    Channel layout              : L R C LFE Ls Rs
    Sampling rate               : 48.0 kHz
    Frame rate                  : 31.250 FPS (1536 SPF)
    Compression mode            : Lossy
    Stream size                 : 534 MiB (1%)
    Title                       : DD 5.1
    Language                    : Spanish
    Service kind                : Complete Main
    Default                     : Yes
    Forced                      : No
    Original source medium      : Blu-ray

    Text #1
    ID                          : 5
    ID in the original source m : 4777 (0x12A9)
    Format                      : PGS
    Muxing mode                 : zlib
    Codec ID                    : S_HDMV/PGS
    Codec ID/Info               : Picture based subtitle format used on BDs/HD-DVDs
    Duration                    : 1 h 31 min
    Bit rate                    : 294 b/s
    Frame rate                  : 0.004 FPS
    Count of elements           : 20
    Stream size                 : 198 KiB (0%)
    Language                    : Spanish
    Default                     : No
    Forced                      : No
    Original source medium      : Blu-ray

    Text #2
    ID                          : 6
    ID in the original source m : 4778 (0x12AA)
    Format                      : PGS
    Muxing mode                 : zlib
    Codec ID                    : S_HDMV/PGS
    Codec ID/Info               : Picture based subtitle format used on BDs/HD-DVDs
    Duration                    : 1 h 52 min
    Bit rate                    : 24.3 kb/s
    Frame rate                  : 0.357 FPS
    Count of elements           : 2401
    Stream size                 : 19.5 MiB (0%)
    Language                    : Spanish
    Default                     : No
    Forced                      : No
    Original source medium      : Blu-ray

    Menu
    00:00:00.000                : en:Chapter 01
    00:02:35.238                : en:Chapter 02
    00:05:46.637                : en:Chapter 03
    00:11:46.038                : en:Chapter 04
    00:13:27.598                : en:Chapter 05
    00:19:56.028                : en:Chapter 06
    00:24:59.080                : en:Chapter 07
    00:27:53.338                : en:Chapter 08
    00:33:55.533                : en:Chapter 09
    00:37:59.777                : en:Chapter 10
    00:40:03.317                : en:Chapter 11
    00:51:16.198                : en:Chapter 12
    00:57:08.383                : en:Chapter 13
    01:04:09.136                : en:Chapter 14
    01:10:51.121                : en:Chapter 15
    01:15:45.874                : en:Chapter 16
    01:19:17.169                : en:Chapter 17
    01:27:09.474                : en:Chapter 18
    01:31:41.621                : en:Chapter 19
    01:44:03.654                : en:Chapter 20
    01:51:13.333                : en:Chapter 21
    01:52:44.048                : en:Chapter 22

  • Peso: 50.0 GiB

Sinopsis

Jack Ryan es un ex agente de la CIA. Salir de aquel mundillo, tan peculiar, donde el peligro y la acción forman parte del día a día, no ha sido una decisión fácil. Pero no se arrepiente porque ahora, por primera vez, tiene una vida familiar. Durante unas vacaciones en Londres, por casualidad, mientras pasean por la ciudad, son testigos de un atentado contra Lord Holmes, un distinguido miembro de la Familia Real Británica. En medio de la confusión, los gritos y las llamas, su entrenamiento en la CIA hace reaccionar a Ryan automáticamente. Sale a defender a Lord Holmes y al hacerlo, le salva la vida, aunque para ello tiene que matar a uno de los terroristas. El atentado es atribuido al I.R.A..

Ficha técnica

Video trailer de la película

Enlaces de descarga

Rip de Bluray

Descargar Patriot Games (1992) REMUX 4K HDR Latino – CMHDD


Aportes de DPeliculasHDmega la pass es:dpeliculashdmega.org Aportes de CinemaniaHD la pass es:cinemaniahdd.com Aportes recientes:cinemaniahdd.net
Guardado en : Acción , Crimen , Drama , Suspenso

Películas relacionadas

  • Familia Nacional (2023) WEB-DL 1080p Latino

    Familia Nacional (2023) WEB-DL 1080p Latino

    2023
    Familia Nacional (2023) WEB-DL 1080p Latino

    1h 43m 2023

    Descargar Familia Nacional (2023) WEB-DL 1080p Latino. Don Poli es el patriarca de una familia disfuncional...

    Director: Marcelo Tobar

    Género: Acción

    Actores: Tadeo Tovar

  • Strictly Confidential (2024) WEB-DL 1080p Latino

    Strictly Confidential (2024) WEB-DL 1080p Latino

    2024
    Strictly Confidential (2024) WEB-DL 1080p Latino

    1h 28m 2024

    Descargar Strictly Confidential (2024) WEB-DL 1080p Latino. Una joven atormentada se ve atraída por...

    Director: Damian Hurley

    Género: Misterio

    Actores: Thomas Downey

  • La Otra Cara de Dorian (2023) WEB-DL 1080p Latino

    La Otra Cara de Dorian (2023) WEB-DL 1080p Latino

    2023
    La Otra Cara de Dorian (2023) WEB-DL 1080p Latino

    1h 40m 2023

    Descargar La Otra Cara de Dorian (2023) WEB-DL 1080p Latino. Una versión moderna del cuento de Oscar...

    Director: Richard John Taylor

    Género: Drama

    Actores: Triana Terry

descargar Patriot Games (1992) REMUX 4K HDR Latino – CMHDD 1080p gratis, Patriot Games (1992) REMUX 4K HDR Latino – CMHDD mega 1 link, Patriot Games (1992) REMUX 4K HDR Latino – CMHDD pelicula completa, descargar Patriot Games (1992) REMUX 4K HDR Latino – CMHDD gratis en mega.

Patriot Games (1992) REMUX 4K HDR Latino – CMHDD pelicula full hd, Patriot Games (1992) REMUX 4K HDR Latino – CMHDD mega latino, Patriot Games (1992) REMUX 4K HDR Latino – CMHDD 4k latino, Patriot Games (1992) REMUX 4K HDR Latino – CMHDD pelicula completa, Patriot Games (1992) REMUX 4K HDR Latino – CMHDD descargar gratis, descargar Patriot Games (1992) REMUX 4K HDR Latino – CMHDD pelicula latino, Patriot Games (1992) REMUX 4K HDR Latino – CMHDD 1 link mega, Patriot Games (1992) REMUX 4K HDR Latino – CMHDD 1 link google drive, Patriot Games (1992) REMUX 4K HDR Latino – CMHDD hd 1080p latino.
Comentarios 0