×

¿Problemas para descargar con Mozilla, EDGE? Deshabilita la opción "Abrir vinculos en una pestaña nueva" tal como lo muestra ésta imagen.

Patrick (2018) WEB-DL 1080p Latino – CMHDD

83 vistas

Información de Patrick (2018) WEB-DL 1080p Latino – CMHDD

Datos de la película

  • Calidad: WEBDL
  • Audio: Español Latino AC3 2.0 WEB-DL - Ingles AC3 5.1 BLURAY
  • Subtitulos: Español Latino SRT
  • Resolución: 19201080p
  • Formato: MKV
  • Codec: H.264
  • Encoder: Dracarys
  • Mediainfo: Clic para Mostrar Datos Ver
  • Format                      : Matroska
    Format version              : Version 4
    File size                   : 4.72 GiB
    Duration                    : 1 h 34 min
    Overall bit rate mode       : Variable
    Overall bit rate            : 7 161 kb/s
    Movie name                  : Patrick (2018) WEB-DL 1080p Latino - CMHDD
    Encoded date                : UTC 2024-04-09 22:16:00
    Writing application         : mkvmerge v47.0.0 ('Black Flag') 64-bit
    Writing library             : libebml v1.3.10 + libmatroska v1.5.2

    Video
    ID                          : 1
    Format                      : AVC
    Format/Info                 : Advanced Video Codec
    Format profile              : High@L4
    Format settings             : CABAC / 4 Ref Frames
    Format settings, CABAC      : Yes
    Format settings, Reference  : 4 frames
    Codec ID                    : V_MPEG4/ISO/AVC
    Duration                    : 1 h 34 min
    Bit rate mode               : Variable
    Bit rate                    : 6 777 kb/s
    Maximum bit rate            : 12.7 Mb/s
    Width                       : 1 920 pixels
    Height                      : 1 080 pixels
    Display aspect ratio        : 16:9
    Frame rate mode             : Constant
    Frame rate                  : 23.976 (24000/1001) FPS
    Color space                 : YUV
    Chroma subsampling          : 4:2:0
    Bit depth                   : 8 bits
    Scan type                   : Progressive
    Bits/(Pixel*Frame)          : 0.136
    Stream size                 : 4.47 GiB (95%)
    Default                     : Yes
    Forced                      : No
    Color range                 : Limited
    Color primaries             : BT.709
    Transfer characteristics    : BT.709
    Matrix coefficients         : BT.709

    Audio #1
    ID                          : 2
    Format                      : AAC LC
    Format/Info                 : Advanced Audio Codec Low Complexity
    Codec ID                    : A_AAC-2
    Duration                    : 1 h 34 min
    Bit rate                    : 125 kb/s
    Channel(s)                  : 2 channels
    Channel layout              : L R
    Sampling rate               : 48.0 kHz
    Frame rate                  : 46.875 FPS (1024 SPF)
    Compression mode            : Lossy
    Stream size                 : 84.6 MiB (2%)
    Language                    : Spanish
    Default                     : No
    Forced                      : No

    Audio #2
    ID                          : 3
    Format                      : E-AC-3
    Format/Info                 : Enhanced AC-3
    Commercial name             : Dolby Digital Plus
    Codec ID                    : A_EAC3
    Duration                    : 1 h 34 min
    Bit rate mode               : Constant
    Bit rate                    : 256 kb/s
    Channel(s)                  : 6 channels
    Channel layout              : L R C LFE Ls Rs
    Sampling rate               : 48.0 kHz
    Frame rate                  : 31.250 FPS (1536 SPF)
    Compression mode            : Lossy
    Stream size                 : 173 MiB (4%)
    Language                    : English
    Service kind                : Complete Main
    Default                     : No
    Forced                      : No

    Text
    ID                          : 4
    Format                      : UTF-8
    Codec ID                    : S_TEXT/UTF8
    Codec ID/Info               : UTF-8 Plain Text
    Duration                    : 1 h 33 min
    Bit rate                    : 56 b/s
    Frame rate                  : 0.241 FPS
    Count of elements           : 1354
    Stream size                 : 38.9 KiB (0%)
    Language                    : Spanish
    Default                     : No
    Forced                      : No

     

  • Peso: 4.72 GiB

Sinopsis

Sarah Francis es una profesora a quien le dejan a cargo del carlino de su abuela, que acaba de fallecer. Hay un problema: no se admiten mascotas en el edificio de apartamentos de Sarah. Sin embargo, no está sola, pues pronto se revela que su vecina Celia ha estado escondiendo su propia mascota en su apartamento por un tiempo. Al principio, el carlino, que está increíblemente mimado y desordena todo, no causa más que estrés a la pobre Sarah, aunque está claro que lo que necesitan es un poco de tiempo para conocerse mejor antes de que la vida de Sarah dé un vuelco a mejor. La película de Disney está dirigida por Mandie Fletcher y protagonizada por Beattie Edmondson como Sarah, Gemma Jones como Celia, Jennifer Saunders como la madre de Sarah y Meera Syal como la directora del colegio en el que trabaja Sarah.

Ficha técnica

Video trailer de la película

Enlaces de descarga

Rip de Bluray

Descargar Patrick (2018) WEB-DL 1080p Latino – CMHDD




Aportes de DPeliculasHDmega la pass es:dpeliculashdmega.org Aportes de CinemaniaHD la pass es:cinemaniahdd.com Aportes recientes:cinemaniahdd.net
Guardado en : Comedia , Familia

Películas relacionadas

  • Perra vida (2024) AMZN WEB-DL 1080p Latino

    Perra vida (2024) AMZN WEB-DL 1080p Latino

    2024
    Perra vida (2024) AMZN WEB-DL 1080p Latino

    1h 48m 2024

    Descargar Perra vida (2024) AMZN WEB-DL 1080p Latino. Para contentar a su hija, Romina (una abogada obsesiva...

    Director: Gabriela Sobarzo

    Género: Comedia

    Actores: Sergio Chamy

  • Kung Fu Panda 4 (2024) 1080p Latino-CMHDD

    Kung Fu Panda 4 (2024) 1080p Latino-CMHDD

    2024
    Kung Fu Panda 4 (2024) 1080p Latino-CMHDD

    1h 34m 2024

    Descargar Kung Fu Panda 4 (2024) 1080p Latino-CMHDD. Po se prepara para ser el líder espiritual del...

    Director: Stephanie Ma Stine

    Género: Acción

    Actores: Viola Davis

  • Kung Fu Panda 4 (2024) Full HD 1080p Latino-CMHDD

    Kung Fu Panda 4 (2024) Full HD 1080p Latino-CMHDD

    2024
    Kung Fu Panda 4 (2024) Full HD 1080p Latino-CMHDD

    1h 34m 2024

    Descargar Kung Fu Panda 4 (2024) Full HD 1080p Latino-CMHDD. Po se prepara para ser el líder espiritual...

    Director: Stephanie Ma Stine

    Género: Acción

    Actores: Viola Davis

  • Kung Fu Panda 4 (2024) REMUX 1080p Latino-CMHDD

    Kung Fu Panda 4 (2024) REMUX 1080p Latino-CMHDD

    2024
    Kung Fu Panda 4 (2024) REMUX 1080p Latino-CMHDD

    1h 34m 2024

    Descargar Kung Fu Panda 4 (2024) REMUX 1080p Latino-CMHDD. Po se prepara para ser el líder espiritual...

    Director: Stephanie Ma Stine

    Género: Acción

    Actores: Viola Davis

descargar Patrick (2018) WEB-DL 1080p Latino – CMHDD WEBDL 1080p gratis, Patrick (2018) WEB-DL 1080p Latino – CMHDD WEBDL mega 1 link, Patrick (2018) WEB-DL 1080p Latino – CMHDD WEBDL pelicula completa, descargar Patrick (2018) WEB-DL 1080p Latino – CMHDD WEBDL gratis en mega.

Patrick (2018) WEB-DL 1080p Latino – CMHDD pelicula full hd, Patrick (2018) WEB-DL 1080p Latino – CMHDD mega latino, Patrick (2018) WEB-DL 1080p Latino – CMHDD 4k latino, Patrick (2018) WEB-DL 1080p Latino – CMHDD pelicula completa, Patrick (2018) WEB-DL 1080p Latino – CMHDD descargar gratis, descargar Patrick (2018) WEB-DL 1080p Latino – CMHDD pelicula latino, Patrick (2018) WEB-DL 1080p Latino – CMHDD 1 link mega, Patrick (2018) WEB-DL 1080p Latino – CMHDD 1 link google drive, Patrick (2018) WEB-DL 1080p Latino – CMHDD hd 1080p latino.
Comentarios 0