Patrick (2018) Remux 1080p Castellano

320 vistas
1 estrella2 estrellas3 estrellas4 estrellas5 estrellas (Ninguna valoración todavía)
Cargando…

Información de Patrick (2018) Remux 1080p Castellano

Datos de la película

  • Calidad: Full 1080p
  • Audio: Se especifica abajo de la Sinopsis
  • Subtitulos: No Disponible en Subdivx
  • Resolución: 1920x1080p
  • Formato: MKV
  • Codec: H.264
  • Encoder: CinefiloCool | FGT
  • Mediainfo: Clic para Mostrar Datos Ver
  • Patrick (2018) Remux 1080p Español.mkv
    Format                      : Matroska
    Format version              : Version 4
    File size                   : 17.0 GiB
    Duration                    : 1 h 34 min
    Overall bit rate mode       : Variable
    Overall bit rate            : 25.8 Mb/s
    Movie name                  : CinemaniaHDD.Net
    Encoded date                : UTC 2019-04-10 21:25:03
    Writing application         : mkvmerge v30.1.0 ('Forever And More') 64-bit
    Writing library             : libebml v1.3.6 + libmatroska v1.4.9

    Video
    ID                          : 1
    Format                      : AVC
    Format/Info                 : Advanced Video Codec
    Format profile              : [email protected]
    Format settings             : CABAC / 3 Ref Frames
    Format settings, CABAC      : Yes
    Format settings, ReFrames   : 3 frames
    Format settings, GOP        : M=3, N=12
    Codec ID                    : V_MPEG4/ISO/AVC
    Duration                    : 1 h 34 min
    Bit rate mode               : Variable
    Bit rate                    : 22.0 Mb/s
    Maximum bit rate            : 35.0 Mb/s
    Width                       : 1 920 pixels
    Height                      : 1 080 pixels
    Display aspect ratio        : 16:9
    Frame rate mode             : Constant
    Frame rate                  : 23.976 (24000/1001) FPS
    Standard                    : NTSC
    Color space                 : YUV
    Chroma subsampling          : 4:2:0
    Bit depth                   : 8 bits
    Scan type                   : Progressive
    Bits/(Pixel*Frame)          : 0.442
    Stream size                 : 14.5 GiB (85%)
    Title                       : Full HD1080p [Remux]
    Language                    : English
    Default                     : No
    Forced                      : No
    Color range                 : Limited
    Color primaries             : BT.709
    Transfer characteristics    : BT.709
    Matrix coefficients         : BT.709

    Audio #1
    ID                          : 2
    Format                      : AC-3
    Format/Info                 : Audio Coding 3
    Commercial name             : Dolby Digital
    Codec ID                    : A_AC3
    Duration                    : 1 h 34 min
    Bit rate mode               : Constant
    Bit rate                    : 256 kb/s
    Channel(s)                  : 2 channels
    Channel layout              : L R
    Sampling rate               : 48.0 kHz
    Frame rate                  : 31.250 FPS (1536 SPF)
    Bit depth                   : 16 bits
    Compression mode            : Lossy
    Stream size                 : 173 MiB (1%)
    Title                       : AC3_2.0_DVD_Cast
    Language                    : Spanish
    Service kind                : Complete Main
    Default                     : Yes
    Forced                      : Yes

    Audio #2
    ID                          : 3
    Format                      : DTS XLL
    Format/Info                 : Digital Theater Systems
    Commercial name             : DTS-HD Master Audio
    Codec ID                    : A_DTS
    Duration                    : 1 h 34 min
    Bit rate mode               : Variable
    Bit rate                    : 3 543 kb/s
    Channel(s)                  : 6 channels
    Channel layout              : C L R Ls Rs LFE
    Sampling rate               : 48.0 kHz
    Frame rate                  : 93.750 FPS (512 SPF)
    Bit depth                   : 24 bits
    Compression mode            : Lossless
    Stream size                 : 2.34 GiB (14%)
    Title                       : DTS-HD_5.1_Bluray_Eng
    Language                    : English
    Default                     : No
    Forced                      : No

    Text
    ID                          : 4
    Format                      : PGS
    Muxing mode                 : zlib
    Codec ID                    : S_HDMV/PGS
    Codec ID/Info               : Picture based subtitle format used on BDs/HD-DVDs
    Duration                    : 1 h 30 min
    Bit rate                    : 34.4 kb/s
    Count of elements           : 4271
    Stream size                 : 22.2 MiB (0%)
    Title                       : Sub_Eng [PGS]
    Language                    : English
    Default                     : No
    Forced                      : No

    Menu
    00:00:00.000                : en:Chapter 01
    00:07:52.847                : en:Chapter 02
    00:16:41.250                : en:Chapter 03
    00:25:01.541                : en:Chapter 04
    00:33:42.061                : en:Chapter 05
    00:39:17.021                : en:Chapter 06
    00:48:07.759                : en:Chapter 07
    00:56:05.320                : en:Chapter 08
    01:06:17.640                : en:Chapter 09
    01:13:38.705                : en:Chapter 10
    01:21:05.318                : en:Chapter 11
    01:28:13.913                : en:Chapter 12

  • Peso: 17.0 GiB

Sinopsis

Descargar Patrick (2018) Remux 1080p Castellano, Google Drive. Sarah Francis es una profesora a quien le dejan a cargo del carlino de su abuela, que acaba de fallecer. Hay un problema: no se admiten mascotas en el edificio de apartamentos de Sarah. Sin embargo, no está sola, pues pronto se revela que su vecina Celia ha estado escondiendo su propia mascota en su apartamento por un tiempo. Al principio, el carlino, que está increíblemente mimado y desordena todo, no causa más que estrés a la pobre Sarah, aunque está claro que lo que necesitan es un poco de tiempo para conocerse mejor antes de que la vida de Sarah dé un vuelco a mejor. La película de Disney está dirigida por Mandie Fletcher y protagonizada por Beattie Edmondson como Sarah, Gemma Jones como Celia, Jennifer Saunders como la madre de Sarah y Meera Syal como la directora del colegio en el que trabaja Sarah.

Audio Español Castellano AC3 2.0 DVD – Ingles DTS-HD 5.1 Bluray
subtitulos: Solo Ingles PGS

Ficha técnica

  • Titulo original: Patrick
  • Fecha de lanzamiento: 29-06-2018 (United Kingdom)
  • Director: Mandie Fletcher
  • Género: Comedia, Familia, Remux
  • Puntuación: 0.0 0 votos
  • Duración:
    1h 34m

Video trailer de la película

Enlaces de descarga

Rip de Bluray

Descargar Patrick (2018) Remux 1080p Castellano




Aportes de DPeliculasHDmega la pass es:dpeliculashdmega.org Aportes de CinemaniaHD la pass es:cinemaniahdd.com
Guardado en : Comedia , Familia , Remux

Películas relacionadas

Comentarios 0