Patria (2020) Temporada 1 HBOGO WEB-DL 1080p Castellano

40 vistas
1 estrella2 estrellas3 estrellas4 estrellas5 estrellas (1 votos, promedio: 5,00 de 5)
Cargando...

Información de Patria (2020) Temporada 1 HBOGO WEB-DL 1080p Castellano

Datos de la película

  • Calidad: WEBDL
  • Audio: Se especifica abajo de la Sinopsis
  • Subtitulos: Ingles SRT
  • Resolución: 1920x1080
  • Formato: MKV
  • Codec: H.264
  • Encoder: cinemaniahdd
  • Mediainfo: Clic para Mostrar Datos Ver
  • Patria T01E01 HBOGO WEB-DL 1080p Castellano.mkv
    Format                      : Matroska
    Format version              : Version 4
    File size                   : 1.60 GiB
    Duration                    : 57 min 24 s
    Overall bit rate mode       : Variable
    Overall bit rate            : 3 982 kb/s
    Movie name                  : Patria T01E01 - CinemaniaHDD.Net
    Encoded date                : UTC 2020-09-28 01:38:07
    Writing application         : mkvmerge v46.0.0 ('No Deeper Escape') 64-bit
    Writing library             : libebml v1.3.10 + libmatroska v1.5.2

    Video
    ID                          : 1
    Format                      : AVC
    Format/Info                 : Advanced Video Codec
    Format profile              : High@L4
    Format settings             : CABAC / 4 Ref Frames
    Format settings, CABAC      : Yes
    Format settings, Reference  : 4 frames
    Codec ID                    : V_MPEG4/ISO/AVC
    Duration                    : 57 min 24 s
    Bit rate mode               : Variable
    Bit rate                    : 3 339 kb/s
    Maximum bit rate            : 5 100 kb/s
    Width                       : 1 920 pixels
    Height                      : 1 080 pixels
    Display aspect ratio        : 16:9
    Frame rate mode             : Constant
    Frame rate                  : 25.000 FPS
    Color space                 : YUV
    Chroma subsampling          : 4:2:0
    Bit depth                   : 8 bits
    Scan type                   : Progressive
    Bits/(Pixel*Frame)          : 0.064
    Stream size                 : 1.34 GiB (84%)
    Title                       : CinemaniaHDD
    Default                     : Yes
    Forced                      : No

    Audio #1
    ID                          : 2
    Format                      : AC-3
    Format/Info                 : Audio Coding 3
    Commercial name             : Dolby Digital
    Codec ID                    : A_AC3
    Duration                    : 57 min 24 s
    Bit rate mode               : Constant
    Bit rate                    : 384 kb/s
    Channel(s)                  : 6 channels
    Channel layout              : L R C LFE Ls Rs
    Sampling rate               : 48.0 kHz
    Frame rate                  : 31.250 FPS (1536 SPF)
    Compression mode            : Lossy
    Stream size                 : 158 MiB (10%)
    Title                       : Español Castellano [CinemaniaHDD]
    Language                    : Spanish
    Service kind                : Complete Main
    Default                     : Yes
    Forced                      : No

    Audio #2
    ID                          : 3
    Format                      : AC-3
    Format/Info                 : Audio Coding 3
    Commercial name             : Dolby Digital
    Codec ID                    : A_AC3
    Duration                    : 57 min 24 s
    Bit rate mode               : Constant
    Bit rate                    : 256 kb/s
    Channel(s)                  : 2 channels
    Channel layout              : L R
    Sampling rate               : 48.0 kHz
    Frame rate                  : 31.250 FPS (1536 SPF)
    Compression mode            : Lossy
    Stream size                 : 105 MiB (6%)
    Title                       : Inglés [CinemaniaHDD]
    Language                    : English
    Service kind                : Complete Main
    Default                     : No
    Forced                      : No

    Text
    ID                          : 4
    Format                      : UTF-8
    Codec ID                    : S_TEXT/UTF8
    Codec ID/Info               : UTF-8 Plain Text
    Duration                    : 55 min 37 s
    Bit rate                    : 44 b/s
    Count of elements           : 568
    Stream size                 : 18.1 KiB (0%)
    Title                       : Inglés [CinemaniaHDD]
    Language                    : English
    Default                     : Yes
    Forced                      : Yes

     

  • Peso: 1.60 GiB C/U --- 5 CAPITULO AGREGADO

Sinopsis

Basada en la novela de Fernando Aramburu, esta serie original de HBO sigue a dos familias divididas por el conflicto separatista en el País Vasco. El día en que ETA anuncia el cese de armas, Bittori decide regresar al pueblo donde su marido, Txato, fue asesinado por los terroristas. ¿Pero habrá lugar para el perdón en una comunidad arrasada por el fanatismo político?

 Ingles AC3 2.0 WEB-DL – Español Castellano AC3 5.1 WEB-DL

5 CAPITULO AGREGADO

Ficha técnica

Video trailer de la película

Enlaces de descarga

Rip de Bluray

Descargar Patria (2020) Temporada 1 HBOGO WEB-DL 1080p Castellano




Aportes de DPeliculasHDmega la pass es:dpeliculashdmega.org Aportes de CinemaniaHD la pass es:cinemaniahdd.com
Guardado en : Crimen , Drama , HBO , Series

Películas relacionadas

Comentarios 1
  • will - 28 septiembre, 2020

    muchas gracias