×

¿Problemas para descargar con Mozilla, EDGE? Deshabilita la opción "Abrir vinculos en una pestaña nueva" tal como lo muestra ésta imagen.

¡Patos! (2023) WEB-DL 1080p Latino

140 vistas

Información de ¡Patos! (2023) WEB-DL 1080p Latino

Datos de la película

  • Calidad: WEBDL
  • Audio: Español Latino AC3 5.1 WEB-DL - Ingles AC3 5.1 WEB-DL
  • Subtitulos: Español Latino SRT- FORZADOS SRT
  • Resolución: 1918x800p
  • Formato: MKV
  • Codec: H.264
  • Encoder: Melkor
  • Mediainfo: Clic para Mostrar Datos Ver
  • Migration (2023) WEB 1080p Latino.mkv
    Format                      : Matroska
    Format version              : Version 4
    File size                   : 4.46 GiB
    Duration                    : 1 h 22 min
    Overall bit rate            : 7 706 kb/s
    Movie name                  : Migration (2023) CinemaniaHDD.Net
    Encoded date                : UTC 2024-01-23 08:37:48
    Writing application         : mkvmerge v56.1.0 ('My Friend') 64-bit
    Writing library             : libebml v1.4.2 + libmatroska v1.6.4
    Attachments                 : CINEMANIAHD.png
    Site                        : CinemaniaHDD.Net
    Uploader                    : Melkor

    Video
    ID                          : 1
    Format                      : AVC
    Format/Info                 : Advanced Video Codec
    Format profile              : High@L4
    Format settings             : CABAC / 5 Ref Frames
    Format settings, CABAC      : Yes
    Format settings, Reference  : 5 frames
    Codec ID                    : V_MPEG4/ISO/AVC
    Duration                    : 1 h 22 min
    Bit rate                    : 6 552 kb/s
    Width                       : 1 918 pixels
    Height                      : 800 pixels
    Display aspect ratio        : 2.40:1
    Original display aspect rat : 2.40:1
    Frame rate mode             : Constant
    Frame rate                  : 23.976 FPS
    Color space                 : YUV
    Chroma subsampling          : 4:2:0
    Bit depth                   : 8 bits
    Scan type                   : Progressive
    Bits/(Pixel*Frame)          : 0.178
    Stream size                 : 3.79 GiB (85%)
    Title                       : Web HD1080p [CinemaniaHDD]
    Default                     : Yes
    Forced                      : Yes
    Color range                 : Limited
    Color primaries             : BT.709
    Transfer characteristics    : BT.709
    Matrix coefficients         : BT.709

    Audio #1
    ID                          : 2
    Format                      : AC-3
    Format/Info                 : Audio Coding 3
    Commercial name             : Dolby Digital
    Codec ID                    : A_AC3
    Duration                    : 1 h 22 min
    Bit rate mode               : Constant
    Bit rate                    : 384 kb/s
    Channel(s)                  : 6 channels
    Channel layout              : L R C LFE Ls Rs
    Sampling rate               : 48.0 kHz
    Frame rate                  : 31.250 FPS (1536 SPF)
    Compression mode            : Lossy
    Stream size                 : 228 MiB (5%)
    Title                       : Español Latino [CinemaniaHDD]
    Language                    : Spanish
    Service kind                : Complete Main
    Default                     : Yes
    Forced                      : Yes

    Audio #2
    ID                          : 3
    Format                      : E-AC-3 JOC
    Format/Info                 : Enhanced AC-3 with Joint Object Coding
    Commercial name             : Dolby Digital Plus with Dolby Atmos
    Codec ID                    : A_EAC3
    Duration                    : 1 h 22 min
    Bit rate mode               : Constant
    Bit rate                    : 768 kb/s
    Channel(s)                  : 6 channels
    Channel layout              : L R C LFE Ls Rs
    Sampling rate               : 48.0 kHz
    Frame rate                  : 31.250 FPS (1536 SPF)
    Compression mode            : Lossy
    Stream size                 : 455 MiB (10%)
    Title                       : Ingles [CinemaniaHDD]
    Language                    : English
    Service kind                : Complete Main
    Default                     : No
    Forced                      : No
    Complexity index            : 16
    Number of dynamic objects   : 15
    Bed channel count           : 1 channel
    Bed channel configuration   : LFE

    Text #1
    ID                          : 4
    Format                      : UTF-8
    Codec ID                    : S_TEXT/UTF8
    Codec ID/Info               : UTF-8 Plain Text
    Duration                    : 1 min 1 s
    Bit rate                    : 27 b/s
    Count of elements           : 11
    Stream size                 : 209 Bytes (0%)
    Title                       : Forzados-SRT [CinemaniaHDD]
    Language                    : Spanish
    Default                     : Yes
    Forced                      : Yes

    Text #2
    ID                          : 5
    Format                      : UTF-8
    Codec ID                    : S_TEXT/UTF8
    Codec ID/Info               : UTF-8 Plain Text
    Duration                    : 1 h 16 min
    Bit rate                    : 56 b/s
    Count of elements           : 1157
    Stream size                 : 31.7 KiB (0%)
    Title                       : Español-SRT [CinemaniaHDD]
    Language                    : Spanish
    Default                     : No
    Forced                      : No

    Text #3
    ID                          : 6
    Format                      : UTF-8
    Codec ID                    : S_TEXT/UTF8
    Codec ID/Info               : UTF-8 Plain Text
    Duration                    : 1 h 16 min
    Bit rate                    : 59 b/s
    Count of elements           : 1372
    Stream size                 : 33.7 KiB (0%)
    Title                       : Ingles-SRT [CinemaniaHDD]
    Language                    : English
    Default                     : No
    Forced                      : No

  • Peso: 4.46 GiB

Sinopsis

Descargar ¡Patos! (2023) WEB-DL 1080p Latino. Después de que una familia de patos migratorios aterriza en su estanque con emocionantes historias de lugares remotos, la familia Mallard embarca en un viaje familiar, atravezando la ciudad de Nueva York, con destino a la tropical Jamaica.

Ficha técnica

Video trailer de la película

Enlaces de descarga

Rip de Bluray

Descargar ¡Patos! (2023) WEB-DL 1080p Latino




Aportes de DPeliculasHDmega la pass es:dpeliculashdmega.org Aportes de CinemaniaHD la pass es:cinemaniahdd.com Aportes recientes:cinemaniahdd.net
Guardado en : Acción , Animación , Aventura , Comedia , Familia

Películas relacionadas

  • Cómplices del engaño (2024) HD 1080p Latino

    Cómplices del engaño (2024) HD 1080p Latino

    2024
    Cómplices del engaño (2024) HD 1080p Latino

    1h 56m 2024

    Descargar Cómplices del engaño (2024) HD 1080p Latino. Gary Johnson es el asesino profesional más...

    Director: T.J. Larson

    Género: Comedia

    Actores: Tre Styles

  • Cómplices del engaño (2024) REMUX 1080p Latino

    Cómplices del engaño (2024) REMUX 1080p Latino

    2024
    Cómplices del engaño (2024) REMUX 1080p Latino

    1h 56m 2024

    Descargar Cómplices del engaño (2024) REMUX 1080p Latino. Gary Johnson es el asesino profesional más...

    Director: T.J. Larson

    Género: Comedia

    Actores: Tre Styles

  • True Lies (1994) REMUX 1080p Latino – CMHDD

    True Lies (1994) REMUX 1080p Latino – CMHDD

    1994
    True Lies (1994) REMUX 1080p Latino – CMHDD

    2h 21m 1994

    El agente especial Harry Tasker mantiene una doble vida. Harry habla seis idiomas, conoce y domina todas...

    Director: Sharron Reynolds-Enriquez

    Género: Acción

    Actores: William Shipman

descargar ¡Patos! (2023) WEB-DL 1080p Latino WEBDL 1080p gratis, ¡Patos! (2023) WEB-DL 1080p Latino WEBDL mega 1 link, ¡Patos! (2023) WEB-DL 1080p Latino WEBDL pelicula completa, descargar ¡Patos! (2023) WEB-DL 1080p Latino WEBDL gratis en mega.

¡Patos! (2023) WEB-DL 1080p Latino pelicula full hd, ¡Patos! (2023) WEB-DL 1080p Latino mega latino, ¡Patos! (2023) WEB-DL 1080p Latino 4k latino, ¡Patos! (2023) WEB-DL 1080p Latino pelicula completa, ¡Patos! (2023) WEB-DL 1080p Latino descargar gratis, descargar ¡Patos! (2023) WEB-DL 1080p Latino pelicula latino, ¡Patos! (2023) WEB-DL 1080p Latino 1 link mega, ¡Patos! (2023) WEB-DL 1080p Latino 1 link google drive, ¡Patos! (2023) WEB-DL 1080p Latino hd 1080p latino.
Comentarios 0