Patines de plata (2020) REMUX 1080i Latino

8 vistas
1 estrella2 estrellas3 estrellas4 estrellas5 estrellas (1 votos, promedio: 5,00 de 5)
Cargando...

Información de Patines de plata (2020) REMUX 1080i Latino

Datos de la película

  • Calidad: Full 1080p
  • Audio: Se especifica abajo de la Sinopsis
  • Subtitulos: Español Latino SRT- FORZADOS SRT
  • Resolución: 1920x1080i
  • Formato: MKV
  • Codec: H.264
  • Encoder: Melkor
  • Mediainfo: Clic para Mostrar Datos Ver
  • Patines De Plata (2020) REMUX 1080p Latino.mkv
    Format                      : Matroska
    Format version              : Version 4
    File size                   : 27.8 GiB
    Duration                    : 2 h 11 min
    Overall bit rate mode       : Variable
    Overall bit rate            : 30.1 Mb/s
    Movie name                  : Silver Skates (2020) [Serebryanye konki] CinemaniaHDD.Net
    Encoded date                : UTC 2021-09-12 04:54:19
    Writing application         : mkvmerge v56.1.0 ('My Friend') 64-bit
    Writing library             : libebml v1.4.2 + libmatroska v1.6.4
    Attachments                 : CINEMANIAHD.png

    Video
    ID                          : 1
    ID in the original source m : 4113 (0x1011)
    Format                      : AVC
    Format/Info                 : Advanced Video Codec
    Format profile              : High@L4.1
    Format settings             : CABAC / 4 Ref Frames
    Format settings, CABAC      : Yes
    Format settings, Reference  : 4 frames
    Codec ID                    : V_MPEG4/ISO/AVC
    Duration                    : 2 h 11 min
    Bit rate mode               : Constant
    Bit rate                    : 26.0 Mb/s
    Width                       : 1 920 pixels
    Height                      : 1 080 pixels
    Display aspect ratio        : 16:9
    Frame rate mode             : Variable
    Frame rate                  : 50.000 FPS
    Original frame rate         : 25.000 FPS
    Standard                    : PAL
    Color space                 : YUV
    Chroma subsampling          : 4:2:0
    Bit depth                   : 8 bits
    Scan type                   : Interlaced
    Scan type, store method     : Separated fields
    Scan order                  : Top Field First
    Bits/(Pixel*Frame)          : 0.251
    Stream size                 : 23.3 GiB (84%)
    Title                       : REMUX HD1080p [CinemaniaHDD]
    Default                     : Yes
    Forced                      : Yes
    Color range                 : Limited
    Color primaries             : BT.709
    Transfer characteristics    : BT.709
    Matrix coefficients         : BT.709
    Original source medium      : Blu-ray

    Audio #1
    ID                          : 2
    Format                      : AC-3
    Format/Info                 : Audio Coding 3
    Commercial name             : Dolby Digital
    Codec ID                    : A_AC3
    Duration                    : 2 h 11 min
    Bit rate mode               : Constant
    Bit rate                    : 640 kb/s
    Channel(s)                  : 6 channels
    Channel layout              : L R C LFE Ls Rs
    Sampling rate               : 48.0 kHz
    Frame rate                  : 31.250 FPS (1536 SPF)
    Compression mode            : Lossy
    Stream size                 : 604 MiB (2%)
    Title                       : Español Latino [CinemaniaHDD]
    Language                    : Spanish
    Service kind                : Complete Main
    Default                     : Yes
    Forced                      : Yes

    Audio #2
    ID                          : 3
    ID in the original source m : 4353 (0x1101)
    Format                      : DTS XLL
    Format/Info                 : Digital Theater Systems
    Commercial name             : DTS-HD Master Audio
    Codec ID                    : A_DTS
    Duration                    : 2 h 11 min
    Bit rate mode               : Variable
    Bit rate                    : 4 168 kb/s
    Channel(s)                  : 6 channels
    Channel layout              : C L R Ls Rs LFE
    Sampling rate               : 48.0 kHz
    Frame rate                  : 93.750 FPS (512 SPF)
    Bit depth                   : 24 bits
    Compression mode            : Lossless
    Stream size                 : 3.84 GiB (14%)
    Title                       : Ruso [CinemaniaHDD]
    Language                    : Russian
    Default                     : No
    Forced                      : No
    Original source medium      : Blu-ray

    Text #1
    ID                          : 4
    Format                      : UTF-8
    Codec ID                    : S_TEXT/UTF8
    Codec ID/Info               : UTF-8 Plain Text
    Duration                    : 2 h 9 min
    Bit rate                    : 3 b/s
    Count of elements           : 112
    Stream size                 : 3.25 KiB (0%)
    Title                       : Forzados-SRT [CinemaniaHDD]
    Language                    : Spanish
    Default                     : Yes
    Forced                      : Yes

    Text #2
    ID                          : 5
    Format                      : UTF-8
    Codec ID                    : S_TEXT/UTF8
    Codec ID/Info               : UTF-8 Plain Text
    Duration                    : 2 h 10 min
    Bit rate                    : 46 b/s
    Count of elements           : 1589
    Stream size                 : 44.1 KiB (0%)
    Title                       : Español-SRT [CinemaniaHDD]
    Language                    : Spanish
    Default                     : No
    Forced                      : No

    Menu
    00:00:00.000                : Chapter 01
    00:09:23.280                : Chapter 02
    00:17:36.480                : Chapter 03
    00:26:40.200                : Chapter 04
    00:35:30.840                : Chapter 05
    00:49:34.520                : Chapter 06
    01:00:34.520                : Chapter 07
    01:12:00.760                : Chapter 08
    01:21:20.920                : Chapter 09
    01:31:37.000                : Chapter 10
    01:46:34.000                : Chapter 11
    01:56:34.440                : Chapter 12
    02:05:18.480                : Chapter 13

  • Peso: 27.8 GiB

Sinopsis

Descargar Patines de plata (2020) REMUX 1080i Latino. 1899, la época navideña de San Petersburgo. Los ríos y canales de la capital cubiertos de hielo hierven con actividades festivas. En vísperas del nuevo siglo, aquellos que no deberían estar destinados a encontrarse, se unen. Son personas de diferentes mundos: Matvey, hijo de un farolero, cuyo único tesoro son sus patines plateados; Alice es la hija de un funcionario de alto rango que sueña con la ciencia. Cada uno de ellos tiene su propia y difícil historia de vida, pero al conocerse accidentalmente, se apresuran juntos en busca de sus sueños.

Español Latino AC3 5.1 WebDL – Ruso DTS-HD 5.1 BD

Nota: El source es un Bluray Original BD50 con barrido entrelazado (1080i)
Nota: Disponible Solo Para VIP!!! 🙂

Ficha técnica

Video trailer de la película

Enlaces de descarga

Rip de Bluray

Descargar Patines de plata (2020) REMUX 1080i Latino




Aportes de DPeliculasHDmega la pass es:dpeliculashdmega.org Aportes de CinemaniaHD la pass es:cinemaniahdd.com
Guardado en : Aventura , Drama , Familia , Historia , Remux , Romance

Películas relacionadas

Patines de plata (2020) REMUX 1080i Latino pelicula full hd, Patines de plata (2020) REMUX 1080i Latino mega latino, Patines de plata (2020) REMUX 1080i Latino 4k latino, Patines de plata (2020) REMUX 1080i Latino pelicula completa, Patines de plata (2020) REMUX 1080i Latino descargar gratis, descargar Patines de plata (2020) REMUX 1080i Latino pelicula latino, Patines de plata (2020) REMUX 1080i Latino 1 link mega, Patines de plata (2020) REMUX 1080i Latino 1 link google drive, Patines de plata (2020) REMUX 1080i Latino hd 1080p latino.
Comentarios 0