Patines de plata (2020) PLACEBO Full HD 1080p Latino

12 vistas
1 estrella2 estrellas3 estrellas4 estrellas5 estrellas (Ninguna valoración todavía)
Cargando...

Información de Patines de plata (2020) PLACEBO Full HD 1080p Latino

Datos de la película

  • Calidad: Full 1080p
  • Audio: Se especifica abajo de la Sinopsis
  • Subtitulos: Español Latino SRT- FORZADOS SRT
  • Resolución: 1920x1080p
  • Formato: MKV
  • Codec: H.264
  • Encoder: Melkor
  • Mediainfo: Clic para Mostrar Datos Ver
  • Patines De Plata (2020) PLACEBO Full HD 1080p Latino.mkv
    Format                      : Matroska
    Format version              : Version 4
    File size                   : 5.88 GiB
    Duration                    : 2 h 11 min
    Overall bit rate            : 6 372 kb/s
    Movie name                  : Silver Skates (2020) [Serebryanye konki] CinemaniaHDD.Net
    Encoded date                : UTC 2021-09-13 16:42:10
    Writing application         : mkvmerge v56.1.0 ('My Friend') 64-bit
    Writing library             : libebml v1.4.2 + libmatroska v1.6.4
    Attachments                 : CINEMANIAHD.png

    Video
    ID                          : 1
    Format                      : AVC
    Format/Info                 : Advanced Video Codec
    Format profile              : High@L4.1
    Format settings             : CABAC / 4 Ref Frames
    Format settings, CABAC      : Yes
    Format settings, Reference  : 4 frames
    Codec ID                    : V_MPEG4/ISO/AVC
    Duration                    : 2 h 11 min
    Bit rate                    : 4 220 kb/s
    Width                       : 1 920 pixels
    Height                      : 1 080 pixels
    Display aspect ratio        : 16:9
    Frame rate mode             : Constant
    Frame rate                  : 25.000 FPS
    Color space                 : YUV
    Chroma subsampling          : 4:2:0
    Bit depth                   : 8 bits
    Scan type                   : Progressive
    Bits/(Pixel*Frame)          : 0.081
    Stream size                 : 3.89 GiB (66%)
    Title                       : Full HD1080p [CinemaniaHDD]
    Writing library             : x264 core 163 r3059 b684ebe0
    Encoding settings           : cabac=1 / ref=4 / deblock=1:0:0 / analyse=0x3:0x133 / me=tesa / subme=11 / psy=1 / psy_rd=1.00:0.00 / mixed_ref=1 / me_range=24 / chroma_me=1 / trellis=2 / 8x8dct=1 / cqm=0 / deadzone=21,11 / fast_pskip=0 / chroma_qp_offset=-2 / threads=24 / lookahead_threads=6 / sliced_threads=0 / nr=0 / decimate=1 / interlaced=0 / bluray_compat=0 / constrained_intra=0 / bframes=16 / b_pyramid=2 / b_adapt=2 / b_bias=0 / direct=3 / weightb=1 / open_gop=0 / weightp=2 / keyint=250 / keyint_min=25 / scenecut=40 / intra_refresh=0 / rc_lookahead=60 / rc=crf / mbtree=1 / crf=19.0 / qcomp=0.60 / qpmin=0 / qpmax=69 / qpstep=4 / vbv_maxrate=62500 / vbv_bufsize=78125 / crf_max=0.0 / nal_hrd=none / filler=0 / ip_ratio=1.40 / aq=1:1.00
    Default                     : Yes
    Forced                      : Yes
    Color range                 : Limited
    Color primaries             : BT.709
    Transfer characteristics    : BT.709
    Matrix coefficients         : BT.709

    Audio #1
    ID                          : 2
    Format                      : AC-3
    Format/Info                 : Audio Coding 3
    Commercial name             : Dolby Digital
    Codec ID                    : A_AC3
    Duration                    : 2 h 11 min
    Bit rate mode               : Constant
    Bit rate                    : 640 kb/s
    Channel(s)                  : 6 channels
    Channel layout              : L R C LFE Ls Rs
    Sampling rate               : 48.0 kHz
    Frame rate                  : 31.250 FPS (1536 SPF)
    Compression mode            : Lossy
    Stream size                 : 604 MiB (10%)
    Title                       : Español Latino [CinemaniaHDD]
    Language                    : Spanish
    Service kind                : Complete Main
    Default                     : Yes
    Forced                      : Yes

    Audio #2
    ID                          : 3
    Format                      : DTS
    Format/Info                 : Digital Theater Systems
    Codec ID                    : A_DTS
    Duration                    : 2 h 11 min
    Bit rate mode               : Constant
    Bit rate                    : 1 509 kb/s
    Channel(s)                  : 6 channels
    Channel layout              : C L R Ls Rs LFE
    Sampling rate               : 48.0 kHz
    Frame rate                  : 93.750 FPS (512 SPF)
    Bit depth                   : 24 bits
    Compression mode            : Lossy
    Stream size                 : 1.39 GiB (24%)
    Title                       : Ruso [CinemaniaHDD]
    Language                    : Russian
    Default                     : No
    Forced                      : No

    Text #1
    ID                          : 4
    Format                      : UTF-8
    Codec ID                    : S_TEXT/UTF8
    Codec ID/Info               : UTF-8 Plain Text
    Duration                    : 2 h 9 min
    Bit rate                    : 3 b/s
    Count of elements           : 112
    Stream size                 : 3.25 KiB (0%)
    Title                       : Forzados-SRT [CinemaniaHDD]
    Language                    : Spanish
    Default                     : Yes
    Forced                      : Yes

    Text #2
    ID                          : 5
    Format                      : UTF-8
    Codec ID                    : S_TEXT/UTF8
    Codec ID/Info               : UTF-8 Plain Text
    Duration                    : 2 h 10 min
    Bit rate                    : 46 b/s
    Count of elements           : 1589
    Stream size                 : 44.1 KiB (0%)
    Title                       : Español-SRT [CinemaniaHDD]
    Language                    : Spanish
    Default                     : No
    Forced                      : No

    Menu
    00:00:00.000                : Chapter 01
    00:09:23.280                : Chapter 02
    00:17:36.480                : Chapter 03
    00:26:40.200                : Chapter 04
    00:35:30.840                : Chapter 05
    00:49:34.520                : Chapter 06
    01:00:34.520                : Chapter 07
    01:12:00.760                : Chapter 08
    01:21:20.920                : Chapter 09
    01:31:37.000                : Chapter 10
    01:46:34.000                : Chapter 11
    01:56:34.440                : Chapter 12
    02:05:18.480                : Chapter 13

  • Peso: 5.88 GiB

Sinopsis

Descargar Patines de plata (2020) PLACEBO Full HD 1080p Latino. 1899, la época navideña de San Petersburgo. Los ríos y canales de la capital cubiertos de hielo hierven con actividades festivas. En vísperas del nuevo siglo, aquellos que no deberían estar destinados a encontrarse, se unen. Son personas de diferentes mundos: Matvey, hijo de un farolero, cuyo único tesoro son sus patines plateados; Alice es la hija de un funcionario de alto rango que sueña con la ciencia. Cada uno de ellos tiene su propia y difícil historia de vida, pero al conocerse accidentalmente, se apresuran juntos en busca de sus sueños.

Español Latino AC3 5.1 WebDL – Ruso DTS 5.1 BD

Ficha técnica

Video trailer de la película

Enlaces de descarga

Rip de Bluray

Descargar Patines de plata (2020) PLACEBO Full HD 1080p Latino




Aportes de DPeliculasHDmega la pass es:dpeliculashdmega.org Aportes de CinemaniaHD la pass es:cinemaniahdd.com

Películas relacionadas

Patines de plata (2020) PLACEBO Full HD 1080p Latino pelicula full hd, Patines de plata (2020) PLACEBO Full HD 1080p Latino mega latino, Patines de plata (2020) PLACEBO Full HD 1080p Latino 4k latino, Patines de plata (2020) PLACEBO Full HD 1080p Latino pelicula completa, Patines de plata (2020) PLACEBO Full HD 1080p Latino descargar gratis, descargar Patines de plata (2020) PLACEBO Full HD 1080p Latino pelicula latino, Patines de plata (2020) PLACEBO Full HD 1080p Latino 1 link mega, Patines de plata (2020) PLACEBO Full HD 1080p Latino 1 link google drive, Patines de plata (2020) PLACEBO Full HD 1080p Latino hd 1080p latino.
Comentarios 0