×

¿Problemas para descargar con Mozilla, EDGE? Deshabilita la opción "Abrir vinculos en una pestaña nueva" tal como lo muestra ésta imagen.

Patient Zero (2018) WEB-DL 4K HDR Latino – CMHDD

155 vistas

Información de Patient Zero (2018) WEB-DL 4K HDR Latino – CMHDD

Datos de la película

  • Calidad: 4K HDR
  • Audio: Español Latino AC3 5.1 BLURAY - Ingles DTS 5.1 BLURAY
  • Subtitulos: Español Latino SRT- FORZADOS SRT
  • Resolución: 3840x2160p
  • Formato: MKV
  • Codec: H.264
  • Encoder: Dracarys
  • Mediainfo: Clic para Mostrar Datos Ver
  • Format                      : Matroska
    Format version              : Version 4
    File size                   : 46.4 GiB
    Duration                    : 1 h 26 min
    Overall bit rate mode       : Variable
    Overall bit rate            : 76.5 Mb/s
    Movie name                  : Patient Zero (2018) WEB-DL 4K HDR Latino - CMHDD
    Encoded date                : UTC 2023-12-20 21:27:10
    Writing application         : mkvmerge v47.0.0 ('Black Flag') 64-bit
    Writing library             : libebml v1.3.10 + libmatroska v1.5.2

    Video
    ID                          : 1
    Format                      : HEVC
    Format/Info                 : High Efficiency Video Coding
    Format profile              : Main 10@L5.2@High
    HDR format                  : SMPTE ST 2086, HDR10 compatible
    Codec ID                    : V_MPEGH/ISO/HEVC
    Duration                    : 1 h 26 min
    Bit rate                    : 73.0 Mb/s
    Width                       : 3 840 pixels
    Height                      : 2 160 pixels
    Display aspect ratio        : 16:9
    Frame rate mode             : Constant
    Frame rate                  : 23.976 (24000/1001) FPS
    Color space                 : YUV
    Chroma subsampling          : 4:2:0 (Type 2)
    Bit depth                   : 10 bits
    Bits/(Pixel*Frame)          : 0.367
    Stream size                 : 44.2 GiB (95%)
    Language                    : English
    Default                     : Yes
    Forced                      : No
    Color range                 : Full
    Color primaries             : BT.2020
    Transfer characteristics    : PQ
    Matrix coefficients         : BT.2020 non-constant
    Mastering display color pri : Display P3
    Mastering display luminance : min: 0.0050 cd/m2, max: 4000 cd/m2
    Maximum Content Light Level : 1047 cd/m2
    Maximum Frame-Average Light : 229 cd/m2

    Audio #1
    ID                          : 2
    Format                      : AC-3
    Format/Info                 : Audio Coding 3
    Commercial name             : Dolby Digital
    Codec ID                    : A_AC3
    Duration                    : 1 h 26 min
    Bit rate mode               : Constant
    Bit rate                    : 640 kb/s
    Channel(s)                  : 6 channels
    Channel layout              : L R C LFE Ls Rs
    Sampling rate               : 48.0 kHz
    Frame rate                  : 31.250 FPS (1536 SPF)
    Compression mode            : Lossy
    Stream size                 : 397 MiB (1%)
    Language                    : Spanish
    Service kind                : Complete Main
    Default                     : Yes
    Forced                      : No

    Audio #2
    ID                          : 3
    Format                      : AC-3
    Format/Info                 : Audio Coding 3
    Commercial name             : Dolby Digital
    Codec ID                    : A_AC3
    Duration                    : 1 h 26 min
    Bit rate mode               : Constant
    Bit rate                    : 640 kb/s
    Channel(s)                  : 6 channels
    Channel layout              : L R C LFE Ls Rs
    Sampling rate               : 48.0 kHz
    Frame rate                  : 31.250 FPS (1536 SPF)
    Compression mode            : Lossy
    Stream size                 : 397 MiB (1%)
    Language                    : English
    Service kind                : Complete Main
    Default                     : No
    Forced                      : No

    Audio #3
    ID                          : 4
    Format                      : DTS XLL
    Format/Info                 : Digital Theater Systems
    Commercial name             : DTS-HD Master Audio
    Codec ID                    : A_DTS
    Duration                    : 1 h 26 min
    Bit rate mode               : Variable
    Bit rate                    : 2 232 kb/s
    Channel(s)                  : 6 channels
    Channel layout              : C L R Ls Rs LFE
    Sampling rate               : 48.0 kHz
    Frame rate                  : 93.750 FPS (512 SPF)
    Bit depth                   : 16 bits
    Compression mode            : Lossless
    Stream size                 : 1.35 GiB (3%)
    Language                    : English
    Default                     : No
    Forced                      : No

    Text #1
    ID                          : 5
    Format                      : UTF-8
    Codec ID                    : S_TEXT/UTF8
    Codec ID/Info               : UTF-8 Plain Text
    Duration                    : 4 s 337 ms
    Bit rate                    : 171 b/s
    Frame rate                  : 0.461 FPS
    Count of elements           : 2
    Stream size                 : 93.0 Bytes (0%)
    Title                       : Forzado
    Language                    : Spanish
    Default                     : Yes
    Forced                      : No

    Text #2
    ID                          : 6
    Format                      : UTF-8
    Codec ID                    : S_TEXT/UTF8
    Codec ID/Info               : UTF-8 Plain Text
    Duration                    : 1 h 21 min
    Bit rate                    : 61 b/s
    Frame rate                  : 0.220 FPS
    Count of elements           : 1072
    Stream size                 : 36.6 KiB (0%)
    Language                    : Spanish
    Default                     : No
    Forced                      : No

    Text #3
    ID                          : 7
    Format                      : PGS
    Muxing mode                 : zlib
    Codec ID                    : S_HDMV/PGS
    Codec ID/Info               : Picture based subtitle format used on BDs/HD-DVDs
    Duration                    : 4 s 337 ms
    Bit rate                    : 208 kb/s
    Frame rate                  : 0.922 FPS
    Count of elements           : 4
    Stream size                 : 110 KiB (0%)
    Title                       : Forzado
    Language                    : Spanish
    Default                     : No
    Forced                      : No

    Text #4
    ID                          : 8
    Format                      : PGS
    Muxing mode                 : zlib
    Codec ID                    : S_HDMV/PGS
    Codec ID/Info               : Picture based subtitle format used on BDs/HD-DVDs
    Duration                    : 1 h 26 min
    Bit rate                    : 44.1 kb/s
    Frame rate                  : 0.414 FPS
    Count of elements           : 2146
    Stream size                 : 27.3 MiB (0%)
    Language                    : Spanish
    Default                     : No
    Forced                      : No

    Menu
    00:00:00.000                : en:Chapter 1
    00:05:08.308                : en:Chapter 2
    00:12:52.355                : en:Chapter 3
    00:16:53.179                : en:Chapter 4
    00:24:10.032                : en:Chapter 5
    00:29:51.540                : en:Chapter 6
    00:32:37.372                : en:Chapter 7
    00:39:08.972                : en:Chapter 8
    00:43:31.901                : en:Chapter 9
    00:49:48.903                : en:Chapter 10
    00:54:39.276                : en:Chapter 11
    01:00:10.982                : en:Chapter 12
    01:04:38.249                : en:Chapter 13
    01:09:54.524                : en:Chapter 14
    01:15:22.852                : en:Chapter 15
    01:19:12.414                : en:Chapter 16

     

  • Peso: 46.4 GiB

Sinopsis

Tras una pandemia sin precedentes, la Humanidad ha resultado prácticamente arrasada por un virus que ha convertido a la mayor parte de la población en violentos infectados. Un hombre está capacitado para comunicarse con los infectados, una habilidad que le convierte en el punto de partida para hallar el origen de la infección y su cura.

Ficha técnica

Video trailer de la película

Enlaces de descarga

Rip de Bluray

Descargar Patient Zero (2018) WEB-DL 4K HDR Latino – CMHDD




Aportes de DPeliculasHDmega la pass es:dpeliculashdmega.org Aportes de CinemaniaHD la pass es:cinemaniahdd.com Aportes recientes:cinemaniahdd.net
Guardado en : Acción , Drama , Suspenso , Terror

Películas relacionadas

  • La Joven y El Mar (2024) DSNP WEB-DL 1080p Latino

    La Joven y El Mar (2024) DSNP WEB-DL 1080p Latino

    2024
    La Joven y El Mar (2024) DSNP WEB-DL 1080p Latino

    1h 40m 2024

    Descargar La Joven y El Mar (2024) DSNP WEB-DL 1080p Latino. La historia de Trudy Ederle, quien en 1926...

    Director: Joachim Rønning

    Género: Drama

    Actores: Yordan Angelov

  • Vanished Into the Night (2024) NF WEB-DL 1080p Latino

    Vanished Into the Night (2024) NF WEB-DL 1080p Latino

    2024
    Vanished Into the Night (2024) NF WEB-DL 1080p Latino

    1h 33m 2024

    Descargar Vanished Into the Night (2024) NF WEB-DL 1080p Latino. Un padre inmerso en un divorcio problemático...

    Director: Renato De Maria

    Género: Drama

    Actores: Riccardo Scamarcio

  • Goyo (2024) NF WEB-DL 1080p Latino

    Goyo (2024) NF WEB-DL 1080p Latino

    2024
    Goyo (2024) NF WEB-DL 1080p Latino

    1h 47m 2024

    Descargar Goyo (2024) NF WEB-DL 1080p Latino. Goyo es un hombre con Asperger, fanático de Van Gogh,...

    Director: Pablo Discianni

    Género: Comedia

    Actores: Walter Fabian Andrade

  • Inmaculada (2024) HD 1080p Latino

    Inmaculada (2024) HD 1080p Latino

    2024
    Inmaculada (2024) HD 1080p Latino

    1h 29m 2024

    Descargar Inmaculada (2024) HD 1080p Latino. Cecilia, una mujer de fe devota, recibe una calurosa bienvenida...

    Director: Valentina Scuro

    Género: HD 1080p

    Actores: Viviane Florentine Nicolai

descargar Patient Zero (2018) WEB-DL 4K HDR Latino – CMHDD 4K HDR 1080p gratis, Patient Zero (2018) WEB-DL 4K HDR Latino – CMHDD 4K HDR mega 1 link, Patient Zero (2018) WEB-DL 4K HDR Latino – CMHDD 4K HDR pelicula completa, descargar Patient Zero (2018) WEB-DL 4K HDR Latino – CMHDD 4K HDR gratis en mega.

Patient Zero (2018) WEB-DL 4K HDR Latino – CMHDD pelicula full hd, Patient Zero (2018) WEB-DL 4K HDR Latino – CMHDD mega latino, Patient Zero (2018) WEB-DL 4K HDR Latino – CMHDD 4k latino, Patient Zero (2018) WEB-DL 4K HDR Latino – CMHDD pelicula completa, Patient Zero (2018) WEB-DL 4K HDR Latino – CMHDD descargar gratis, descargar Patient Zero (2018) WEB-DL 4K HDR Latino – CMHDD pelicula latino, Patient Zero (2018) WEB-DL 4K HDR Latino – CMHDD 1 link mega, Patient Zero (2018) WEB-DL 4K HDR Latino – CMHDD 1 link google drive, Patient Zero (2018) WEB-DL 4K HDR Latino – CMHDD hd 1080p latino.
Comentarios 0