×

¿Problemas para descargar con Mozilla, EDGE? Deshabilita la opción "Abrir vinculos en una pestaña nueva" tal como lo muestra ésta imagen.

Pathfinder (2007) REMUX 1080p Latino – CMHDD

231 vistas

Información de Pathfinder (2007) REMUX 1080p Latino – CMHDD

Datos de la película

  • Calidad: Full 1080p
  • Audio: Español Latino AC3 5.1 BLURAY - Ingles DTS 5.1 BLURAY
  • Subtitulos: Español Latino PGS
  • Resolución: 1920x1080p
  • Formato: MKV
  • Codec: H.264
  • Encoder: Dracarys
  • Mediainfo: Clic para Mostrar Datos Ver
  • Format                      : Matroska
    Format version              : Version 4
    File size                   : 27.2 GiB
    Duration                    : 1 h 47 min
    Overall bit rate mode       : Variable
    Overall bit rate            : 36.4 Mb/s
    Movie name                  : Pathfinder (2007) REMUX 1080p Latino - CMHDD
    Encoded date                : UTC 2021-05-31 21:51:24
    Writing application         : mkvmerge v56.1.0 ('My Friend') 64-bit
    Writing library             : libebml v1.4.2 + libmatroska v1.6.4

    Video
    ID                          : 1
    ID in the original source m : 4113 (0x1011)
    Format                      : MPEG Video
    Format version              : Version 2
    Format profile              : Main@High
    Format settings             : BVOP
    Format settings, BVOP       : Yes
    Format settings, Matrix     : Default
    Format settings, GOP        : M=3, N=12
    Codec ID                    : V_MPEG2
    Codec ID/Info               : MPEG 1 or 2 Video
    Duration                    : 1 h 47 min
    Bit rate mode               : Variable
    Bit rate                    : 31.8 Mb/s
    Maximum bit rate            : 39.0 Mb/s
    Width                       : 1 920 pixels
    Height                      : 1 080 pixels
    Display aspect ratio        : 16:9
    Frame rate mode             : Constant
    Frame rate                  : 23.976 (24000/1001) FPS
    Color space                 : YUV
    Chroma subsampling          : 4:2:0
    Bit depth                   : 8 bits
    Scan type                   : Progressive
    Compression mode            : Lossy
    Bits/(Pixel*Frame)          : 0.640
    Time code of first frame    : 00:00:00:00
    Time code source            : Group of pictures header
    GOP, Open/Closed            : Open
    GOP, Open/Closed of first f : Closed
    Stream size                 : 23.8 GiB (88%)
    Default                     : Yes
    Forced                      : No
    Original source medium      : Blu-ray

    Audio #1
    ID                          : 2
    ID in the original source m : 4352 (0x1100)
    Format                      : DTS XLL
    Format/Info                 : Digital Theater Systems
    Commercial name             : DTS-HD Master Audio
    Codec ID                    : A_DTS
    Duration                    : 1 h 47 min
    Bit rate mode               : Variable
    Bit rate                    : 4 083 kb/s
    Channel(s)                  : 6 channels
    Channel layout              : C L R Ls Rs LFE
    Sampling rate               : 48.0 kHz
    Frame rate                  : 93.750 FPS (512 SPF)
    Bit depth                   : 24 bits
    Compression mode            : Lossless
    Stream size                 : 3.06 GiB (11%)
    Language                    : English
    Default                     : No
    Forced                      : No
    Original source medium      : Blu-ray

    Audio #2
    ID                          : 3
    Format                      : AC-3
    Format/Info                 : Audio Coding 3
    Commercial name             : Dolby Digital
    Codec ID                    : A_AC3
    Duration                    : 1 h 47 min
    Bit rate mode               : Constant
    Bit rate                    : 448 kb/s
    Channel(s)                  : 6 channels
    Channel layout              : L R C LFE Ls Rs
    Sampling rate               : 48.0 kHz
    Frame rate                  : 31.250 FPS (1536 SPF)
    Compression mode            : Lossy
    Stream size                 : 343 MiB (1%)
    Language                    : Spanish
    Service kind                : Complete Main
    Default                     : Yes
    Forced                      : No

    Text #1
    ID                          : 4
    ID in the original source m : 4612 (0x1204)
    Format                      : PGS
    Muxing mode                 : zlib
    Codec ID                    : S_HDMV/PGS
    Codec ID/Info               : Picture based subtitle format used on BDs/HD-DVDs
    Duration                    : 1 h 40 min
    Bit rate                    : 6 764 b/s
    Count of elements           : 640
    Stream size                 : 4.87 MiB (0%)
    Language                    : Spanish
    Default                     : No
    Forced                      : No
    Original source medium      : Blu-ray

    Text #2
    ID                          : 5
    ID in the original source m : 4613 (0x1205)
    Format                      : PGS
    Muxing mode                 : zlib
    Codec ID                    : S_HDMV/PGS
    Codec ID/Info               : Picture based subtitle format used on BDs/HD-DVDs
    Duration                    : 1 h 34 min
    Bit rate                    : 1 896 b/s
    Count of elements           : 188
    Stream size                 : 1.29 MiB (0%)
    Language                    : Spanish
    Default                     : No
    Forced                      : No
    Original source medium      : Blu-ray

    Text #3
    ID                          : 6
    Format                      : UTF-8
    Codec ID                    : S_TEXT/UTF8
    Codec ID/Info               : UTF-8 Plain Text
    Duration                    : 1 h 34 min
    Bit rate                    : 3 b/s
    Count of elements           : 101
    Stream size                 : 2.42 KiB (0%)
    Language                    : Spanish
    Default                     : Yes
    Forced                      : No

    Text #4
    ID                          : 7
    Format                      : UTF-8
    Codec ID                    : S_TEXT/UTF8
    Codec ID/Info               : UTF-8 Plain Text
    Duration                    : 1 h 40 min
    Bit rate                    : 11 b/s
    Count of elements           : 310
    Stream size                 : 8.60 KiB (0%)
    Language                    : Spanish
    Default                     : No
    Forced                      : No

    Menu
    00:00:00.000                : Chapter 01
    00:02:06.334                : Chapter 02
    00:06:09.702                : Chapter 03
    00:10:27.460                : Chapter 04
    00:18:16.720                : Chapter 05
    00:21:05.472                : Chapter 06
    00:25:11.843                : Chapter 07
    00:27:46.456                : Chapter 08
    00:34:34.405                : Chapter 09
    00:43:24.268                : Chapter 10
    00:47:37.729                : Chapter 11
    00:55:36.958                : Chapter 12
    01:00:09.772                : Chapter 13
    01:02:35.752                : Chapter 14
    01:10:17.796                : Chapter 15
    01:14:34.428                : Chapter 16
    01:19:16.209                : Chapter 17
    01:22:06.296                : Chapter 18
    01:24:02.537                : Chapter 19
    01:33:31.397                : Chapter 20
    01:35:06.492                : Chapter 21
    01:37:40.229                : Chapter 22
    01:41:31.460                : Chapter 23
    01:42:37.276                : Chapter 24

  • Peso: 27.2 GiB

Sinopsis

Un joven vikingo fue dejado atrás por su gente tras una incursión en las Costas Orientales. A pesar de su linaje, es joven es criado por los indios que sobrevivieron al ataque. Ante la vuelta de los Vikingos, quienes de nuevo vienen con planes de destruir la aldea, el joven guerrero Nórdico se encuentra en medio de un conflicto en que luchará para impedir que su misma gente traiga la destrucción y la muerte al pueblo donde fue acogido como si fuera uno mas, convirtiéndolo en su familia. Pero en medio de la lucha en contra de su linaje, su verdadero destino le es revelado, y su identidad es reclamada.

Ficha técnica

Video trailer de la película

Enlaces de descarga

Rip de Bluray

Descargar Pathfinder (2007) REMUX 1080p Latino – CMHDD


Aportes de DPeliculasHDmega la pass es:dpeliculashdmega.org Aportes de CinemaniaHD la pass es:cinemaniahdd.com
Guardado en : Acción , Aventura

Películas relacionadas

  • Mar de sangre (2022) WEB-DL 1080p Latino

    Mar de sangre (2022) WEB-DL 1080p Latino

    2022
    Mar de sangre (2022) WEB-DL 1080p Latino

    1h 27m 2022

    Descargar Mar de sangre (2022) WEB-DL 1080p Latino. Un grupo de amigos que disfrutan de un fin de semana...

    Director: James Nunn

    Género: Acción

    Actores: Thomas Michael Flynn

  • Noche sin paz (2022) PLACEBO Full HD 1080p Latino

    Noche sin paz (2022) PLACEBO Full HD 1080p Latino

    2022
    Noche sin paz (2022) PLACEBO Full HD 1080p Latino

    1h 41m 2022

    Descargar Noche sin paz (2022) PLACEBO Full HD 1080p Latino. Cuando un equipo de mercenarios irrumpe...

    Director: Tyshana Hobson

    Género: Acción

    Actores: Yoon Cha-Lee

  • Noche sin paz (2022) HD 1080p Latino

    Noche sin paz (2022) HD 1080p Latino

    2022
    Noche sin paz (2022) HD 1080p Latino

    1h 41m 2022

    Descargar Noche sin paz (2022) HD 1080p Latino. Cuando un equipo de mercenarios irrumpe en Nochebuena...

    Director: Tyshana Hobson

    Género: Acción

    Actores: Yoon Cha-Lee

  • Noche sin paz (2022) REMUX 1080p Latino

    Noche sin paz (2022) REMUX 1080p Latino

    2022
    Noche sin paz (2022) REMUX 1080p Latino

    1h 41m 2022

    Descargar Noche sin paz (2022) REMUX 1080p Latino. Cuando un equipo de mercenarios irrumpe en Nochebuena...

    Director: Tyshana Hobson

    Género: Acción

    Actores: Yoon Cha-Lee

  • Narvik (2022) NF WEB-DL 1080p Latino

    Narvik (2022) NF WEB-DL 1080p Latino

    2022
    Narvik (2022) NF WEB-DL 1080p Latino

    1h 48m 2022

    Descargar Narvik (2022) NF WEB-DL 1080p Latino. Abril de 1940. Los ojos del mundo están puestos en Narvik,...

    Director: Suzanne Svae-Johansen

    Género: Acción

    Actores: Torfinn Nag

descargar Pathfinder (2007) REMUX 1080p Latino – CMHDD Full 1080p 1080p gratis, Pathfinder (2007) REMUX 1080p Latino – CMHDD Full 1080p mega 1 link, Pathfinder (2007) REMUX 1080p Latino – CMHDD Full 1080p pelicula completa, descargar Pathfinder (2007) REMUX 1080p Latino – CMHDD Full 1080p gratis en mega.

Pathfinder (2007) REMUX 1080p Latino – CMHDD pelicula full hd, Pathfinder (2007) REMUX 1080p Latino – CMHDD mega latino, Pathfinder (2007) REMUX 1080p Latino – CMHDD 4k latino, Pathfinder (2007) REMUX 1080p Latino – CMHDD pelicula completa, Pathfinder (2007) REMUX 1080p Latino – CMHDD descargar gratis, descargar Pathfinder (2007) REMUX 1080p Latino – CMHDD pelicula latino, Pathfinder (2007) REMUX 1080p Latino – CMHDD 1 link mega, Pathfinder (2007) REMUX 1080p Latino – CMHDD 1 link google drive, Pathfinder (2007) REMUX 1080p Latino – CMHDD hd 1080p latino.
Comentarios 0