×

¿Problemas para descargar con Mozilla, EDGE? Deshabilita la opción "Abrir vinculos en una pestaña nueva" tal como lo muestra ésta imagen.

Pathfinder (2007) Full HD 1080p Latino – CMHDD

233 vistas

Información de Pathfinder (2007) Full HD 1080p Latino – CMHDD

Datos de la película

  • Calidad: Full 1080p
  • Audio: Español Latino AC3 5.1 BLURAY - Ingles DTS 5.1 BLURAY
  • Subtitulos: Español Latino PGS
  • Resolución: 1920x1080p
  • Formato: MKV
  • Codec: H.264
  • Encoder: Dracarys
  • Mediainfo: Clic para Mostrar Datos Ver
  • Format                      : Matroska
    Format version              : Version 4
    File size                   : 10.6 GiB
    Duration                    : 1 h 47 min
    Overall bit rate mode       : Variable
    Overall bit rate            : 14.2 Mb/s
    Movie name                  : Pathfinder (2007) Full HD 1080p Latino - CMHDD
    Encoded date                : UTC 2021-05-31 22:08:02
    Writing application         : mkvmerge v56.1.0 ('My Friend') 64-bit
    Writing library             : libebml v1.4.2 + libmatroska v1.6.4

    Video
    ID                          : 1
    Format                      : AVC
    Format/Info                 : Advanced Video Codec
    Format profile              : High@L4.1
    Format settings             : CABAC / 4 Ref Frames
    Format settings, CABAC      : Yes
    Format settings, Reference  : 4 frames
    Codec ID                    : V_MPEG4/ISO/AVC
    Duration                    : 1 h 47 min
    Bit rate                    : 9 650 kb/s
    Width                       : 1 920 pixels
    Height                      : 1 080 pixels
    Display aspect ratio        : 16:9
    Frame rate mode             : Constant
    Frame rate                  : 23.976 (24000/1001) FPS
    Color space                 : YUV
    Chroma subsampling          : 4:2:0
    Bit depth                   : 8 bits
    Scan type                   : Progressive
    Bits/(Pixel*Frame)          : 0.194
    Stream size                 : 7.23 GiB (68%)
    Writing library             : x264 core 157 r2935 545de2f
    Encoding settings           : cabac=1 / ref=4 / deblock=1:0:0 / analyse=0x3:0x133 / me=tesa / subme=11 / psy=1 / psy_rd=1.00:0.00 / mixed_ref=1 / me_range=24 / chroma_me=1 / trellis=2 / 8x8dct=1 / cqm=0 / deadzone=21,11 / fast_pskip=0 / chroma_qp_offset=-2 / threads=24 / lookahead_threads=6 / sliced_threads=0 / nr=0 / decimate=1 / interlaced=0 / bluray_compat=0 / constrained_intra=0 / bframes=16 / b_pyramid=2 / b_adapt=2 / b_bias=0 / direct=3 / weightb=1 / open_gop=0 / weightp=2 / keyint=240 / keyint_min=24 / scenecut=40 / intra_refresh=0 / rc_lookahead=60 / rc=crf / mbtree=1 / crf=20.0 / qcomp=0.60 / qpmin=0 / qpmax=69 / qpstep=4 / vbv_maxrate=62500 / vbv_bufsize=78125 / crf_max=0.0 / nal_hrd=none / filler=0 / ip_ratio=1.40 / aq=1:1.00
    Default                     : Yes
    Forced                      : No
    Color range                 : Limited
    Color primaries             : BT.709
    Transfer characteristics    : BT.709
    Matrix coefficients         : BT.709

    Audio #1
    ID                          : 2
    Format                      : AC-3
    Format/Info                 : Audio Coding 3
    Commercial name             : Dolby Digital
    Codec ID                    : A_AC3
    Duration                    : 1 h 47 min
    Bit rate mode               : Constant
    Bit rate                    : 448 kb/s
    Channel(s)                  : 6 channels
    Channel layout              : L R C LFE Ls Rs
    Sampling rate               : 48.0 kHz
    Frame rate                  : 31.250 FPS (1536 SPF)
    Compression mode            : Lossy
    Stream size                 : 343 MiB (3%)
    Language                    : Spanish
    Service kind                : Complete Main
    Default                     : Yes
    Forced                      : No

    Audio #2
    ID                          : 3
    Format                      : DTS XLL
    Format/Info                 : Digital Theater Systems
    Commercial name             : DTS-HD Master Audio
    Codec ID                    : A_DTS
    Duration                    : 1 h 47 min
    Bit rate mode               : Variable
    Bit rate                    : 4 083 kb/s
    Channel(s)                  : 6 channels
    Channel layout              : C L R Ls Rs LFE
    Sampling rate               : 48.0 kHz
    Frame rate                  : 93.750 FPS (512 SPF)
    Bit depth                   : 24 bits
    Compression mode            : Lossless
    Stream size                 : 3.06 GiB (29%)
    Language                    : English
    Default                     : No
    Forced                      : No

    Text #1
    ID                          : 4
    Format                      : UTF-8
    Codec ID                    : S_TEXT/UTF8
    Codec ID/Info               : UTF-8 Plain Text
    Duration                    : 1 h 34 min
    Bit rate                    : 3 b/s
    Count of elements           : 101
    Stream size                 : 2.42 KiB (0%)
    Language                    : Spanish
    Default                     : Yes
    Forced                      : No

    Text #2
    ID                          : 5
    Format                      : UTF-8
    Codec ID                    : S_TEXT/UTF8
    Codec ID/Info               : UTF-8 Plain Text
    Duration                    : 1 h 40 min
    Bit rate                    : 11 b/s
    Count of elements           : 310
    Stream size                 : 8.60 KiB (0%)
    Language                    : Spanish
    Default                     : No
    Forced                      : No

    Menu
    00:00:00.000                : :Chapter 1
    00:02:06.335                : :Chapter 2
    00:06:09.703                : :Chapter 3
    00:10:27.502                : :Chapter 4
    00:18:16.721                : :Chapter 5
    00:21:05.473                : :Chapter 6
    00:25:11.844                : :Chapter 7
    00:27:46.498                : :Chapter 8
    00:34:34.406                : :Chapter 9
    00:43:24.393                : :Chapter 10
    00:47:37.730                : :Chapter 11
    00:55:36.959                : :Chapter 12
    01:00:09.773                : :Chapter 13
    01:02:35.752                : :Chapter 14
    01:10:17.797                : :Chapter 15
    01:14:34.553                : :Chapter 16
    01:19:16.210                : :Chapter 17
    01:22:06.380                : :Chapter 18
    01:24:02.538                : :Chapter 19
    01:33:31.439                : :Chapter 20
    01:35:06.618                : :Chapter 21
    01:37:40.271                : :Chapter 22
    01:41:31.502                : :Chapter 23
    01:42:37.318                : :Chapter 24

  • Peso: 10.6 GiB

Sinopsis

Un joven vikingo fue dejado atrás por su gente tras una incursión en las Costas Orientales. A pesar de su linaje, es joven es criado por los indios que sobrevivieron al ataque. Ante la vuelta de los Vikingos, quienes de nuevo vienen con planes de destruir la aldea, el joven guerrero Nórdico se encuentra en medio de un conflicto en que luchará para impedir que su misma gente traiga la destrucción y la muerte al pueblo donde fue acogido como si fuera uno mas, convirtiéndolo en su familia. Pero en medio de la lucha en contra de su linaje, su verdadero destino le es revelado, y su identidad es reclamada.

Ficha técnica

Video trailer de la película

Enlaces de descarga

Rip de Bluray

Descargar Pathfinder (2007) Full HD 1080p Latino – CMHDD




Aportes de DPeliculasHDmega la pass es:dpeliculashdmega.org Aportes de CinemaniaHD la pass es:cinemaniahdd.com
Guardado en : Acción , Aventura

Películas relacionadas

descargar Pathfinder (2007) Full HD 1080p Latino – CMHDD Full 1080p 1080p gratis, Pathfinder (2007) Full HD 1080p Latino – CMHDD Full 1080p mega 1 link, Pathfinder (2007) Full HD 1080p Latino – CMHDD Full 1080p pelicula completa, descargar Pathfinder (2007) Full HD 1080p Latino – CMHDD Full 1080p gratis en mega.

Pathfinder (2007) Full HD 1080p Latino – CMHDD pelicula full hd, Pathfinder (2007) Full HD 1080p Latino – CMHDD mega latino, Pathfinder (2007) Full HD 1080p Latino – CMHDD 4k latino, Pathfinder (2007) Full HD 1080p Latino – CMHDD pelicula completa, Pathfinder (2007) Full HD 1080p Latino – CMHDD descargar gratis, descargar Pathfinder (2007) Full HD 1080p Latino – CMHDD pelicula latino, Pathfinder (2007) Full HD 1080p Latino – CMHDD 1 link mega, Pathfinder (2007) Full HD 1080p Latino – CMHDD 1 link google drive, Pathfinder (2007) Full HD 1080p Latino – CMHDD hd 1080p latino.
Comentarios 0