×

¿Problemas para descargar con Mozilla, EDGE? Deshabilita la opción "Abrir vinculos en una pestaña nueva" tal como lo muestra ésta imagen.

Pasión de gavilanes (2022) Temporada 2 WEB-DL 1080p Latino

5.116 vistas

Información de Pasión de gavilanes (2022) Temporada 2 WEB-DL 1080p Latino

Datos de la película

  • Calidad: 1080p
  • Audio: Español Latino AC3 2.0
  • Subtitulos: Español Latino SRT - Ingles SRT
  • Resolución: 1920x1080
  • Formato: MKV
  • Codec: H.264
  • Encoder: cinemaniahdd
  • Mediainfo: Clic para Mostrar Datos Ver
  • Pasion de gavilanes T02E01 WEB-DL 1080p Latino [CNMNHDD].mkv
    Format                      : Matroska
    Format version              : Version 4
    File size                   : 2.90 GiB
    Duration                    : 53 min 19 s
    Overall bit rate            : 7 781 kb/s
    Movie name                  : Pasion de gavilanes S02E01 - Beyond a Threat [1080p]
    Encoded date                : UTC 2022-02-25 00:26:54
    Writing application         : mkvmerge v59.0.0 ('Shining Star') 64-bit
    Writing library             : libebml v1.4.2 + libmatroska v1.6.4

    Video
    ID                          : 1
    Format                      : AVC
    Format/Info                 : Advanced Video Codec
    Format profile              : High@L4
    Format settings             : CABAC / 4 Ref Frames
    Format settings, CABAC      : Yes
    Format settings, Reference  : 4 frames
    Codec ID                    : V_MPEG4/ISO/AVC
    Duration                    : 53 min 19 s
    Bit rate                    : 7 814 kb/s
    Width                       : 1 920 pixels
    Height                      : 1 080 pixels
    Display aspect ratio        : 16:9
    Frame rate mode             : Constant
    Frame rate                  : 29.970 (30000/1001) FPS
    Original frame rate         : 29.970 (29970/1000) FPS
    Color space                 : YUV
    Chroma subsampling          : 4:2:0
    Bit depth                   : 8 bits
    Scan type                   : Progressive
    Bits/(Pixel*Frame)          : 0.126
    Stream size                 : 2.86 GiB (99%)
    Title                       : CinemaniaHDD
    Writing library             : x264 core 163 r3060 5db6aa6
    Encoding settings           : cabac=1 / ref=4 / deblock=1:0:0 / analyse=0x3:0x113 / me=umh / subme=7 / psy=1 / psy_rd=0.00:0.00 / mixed_ref=1 / me_range=16 / chroma_me=1 / trellis=1 / 8x8dct=1 / cqm=0 / deadzone=21,11 / fast_pskip=0 / chroma_qp_offset=0 / threads=34 / lookahead_threads=5 / sliced_threads=0 / nr=0 / decimate=1 / interlaced=0 / bluray_compat=0 / constrained_intra=0 / bframes=16 / b_pyramid=2 / b_adapt=1 / b_bias=0 / direct=1 / weightb=1 / open_gop=0 / weightp=2 / keyint=60 / keyint_min=6 / scenecut=0 / intra_refresh=0 / rc_lookahead=40 / rc=2pass / mbtree=1 / bitrate=7814 / ratetol=1.0 / qcomp=0.60 / qpmin=10 / qpmax=51 / qpstep=4 / cplxblur=20.0 / qblur=0.5 / vbv_maxrate=7814 / vbv_bufsize=7814 / nal_hrd=none / filler=0 / ip_ratio=1.41 / aq=1:1.00
    Default                     : Yes
    Forced                      : No
    Color range                 : Limited
    Color primaries             : BT.709
    Transfer characteristics    : BT.709
    Matrix coefficients         : BT.709

    Audio
    ID                          : 2
    Format                      : AAC LC
    Format/Info                 : Advanced Audio Codec Low Complexity
    Codec ID                    : A_AAC-2
    Duration                    : 53 min 19 s
    Bit rate                    : 96.0 kb/s
    Channel(s)                  : 2 channels
    Channel layout              : L R
    Sampling rate               : 48.0 kHz
    Frame rate                  : 46.875 FPS (1024 SPF)
    Compression mode            : Lossy
    Stream size                 : 36.6 MiB (1%)
    Title                       : Español latino [CinemaniaHDD]
    Language                    : Spanish
    Default                     : No
    Forced                      : No

    Text #1
    ID                          : 3
    Format                      : UTF-8
    Codec ID                    : S_TEXT/UTF8
    Codec ID/Info               : UTF-8 Plain Text
    Duration                    : 53 min 4 s
    Bit rate                    : 75 b/s
    Count of elements           : 898
    Stream size                 : 29.5 KiB (0%)
    Title                       : Español latino [CinemaniaHDD]
    Language                    : Spanish
    Default                     : No
    Forced                      : No

    Text #2
    ID                          : 4
    Format                      : UTF-8
    Codec ID                    : S_TEXT/UTF8
    Codec ID/Info               : UTF-8 Plain Text
    Duration                    : 52 min 49 s
    Bit rate                    : 62 b/s
    Count of elements           : 783
    Stream size                 : 24.1 KiB (0%)
    Title                       : Inglés [CinemaniaHDD]
    Language                    : English
    Default                     : No
    Forced                      : No

     

  • Peso: 2.90 GiB C/U --- 61 CAPITULOS DISPONIBLES

Sinopsis

Los hermanos Reyes buscan vengar la muerte de su hermana, lo que les lleva a instalarse como trabajadores en la mansión de la familia Elizondo. El profundo odio comienza a cambiar cuando los hermanos Reyes se integran en la vida de la familia. Con lo que no cuenta Juan es con que su vida y las de sus dos hermanos se cruzará con la de las tres hermanas Elizondo, corriendo el riesgo de caer presos de su propia venganza…

61 CAPITULOS AGREGADOS

Ficha técnica

  • Titulo original: Pasión de gavilanes
  • Fecha de lanzamiento: 21-10-2003 (CO)
  • Director: Julio Jiménez
  • Género: Drama, Series

Video trailer de la película

Enlaces de descarga

Rip de Bluray

Descargar Pasión de gavilanes (2022) Temporada 2 WEB-DL 1080p Latino




Aportes de DPeliculasHDmega la pass es:dpeliculashdmega.org Aportes de CinemaniaHD la pass es:cinemaniahdd.com
Guardado en : Drama , Series

Películas relacionadas

  • Obi-Wan Kenobi (2022) Temporada 1 WEB-DL 1080p Latino

    Obi-Wan Kenobi (2022) Temporada 1 WEB-DL 1080p Latino

    2022
    Obi-Wan Kenobi (2022) Temporada 1 WEB-DL 1080p Latino

    0h 0m 2022

    Obi-Wan Kenobi (2022) Temporada 1 WEB-DL 1080p Latino. Miniserie de TV basada en la figura de Obi-Wan...

    Director: Joby Harold

    Género: Action & Adventure

    Actores: Vivien Lyra Blair

  • Warning (2021) PLACEBO Full HD 1080p Latino

    Warning (2021) PLACEBO Full HD 1080p Latino

    2021
    Warning (2021) PLACEBO Full HD 1080p Latino

    1h 25m 2021

    Descargar Warning (2021) PLACEBO Full HD 1080p Latino. Ambientada en un futuro no muy lejano, la obra...

    Director: Agata Alexander

    Género: Ciencia ficción

    Actores: Toni Garrn

  • Warning (2021) REMUX 1080p Latino

    Warning (2021) REMUX 1080p Latino

    2021
    Warning (2021) REMUX 1080p Latino

    1h 25m 2021

    Descargar Warning (2021) REMUX 1080p Latino. Ambientada en un futuro no muy lejano, la obra reflexiona...

    Director: Agata Alexander

    Género: Ciencia ficción

    Actores: Toni Garrn

Pasión de gavilanes (2022) Temporada 2 WEB-DL 1080p Latino pelicula full hd, Pasión de gavilanes (2022) Temporada 2 WEB-DL 1080p Latino mega latino, Pasión de gavilanes (2022) Temporada 2 WEB-DL 1080p Latino 4k latino, Pasión de gavilanes (2022) Temporada 2 WEB-DL 1080p Latino pelicula completa, Pasión de gavilanes (2022) Temporada 2 WEB-DL 1080p Latino descargar gratis, descargar Pasión de gavilanes (2022) Temporada 2 WEB-DL 1080p Latino pelicula latino, Pasión de gavilanes (2022) Temporada 2 WEB-DL 1080p Latino 1 link mega, Pasión de gavilanes (2022) Temporada 2 WEB-DL 1080p Latino 1 link google drive, Pasión de gavilanes (2022) Temporada 2 WEB-DL 1080p Latino hd 1080p latino.
Comentarios 0