×

¿Problemas para descargar con Mozilla, EDGE? Deshabilita la opción "Abrir vinculos en una pestaña nueva" tal como lo muestra ésta imagen.

Parental Guidance (2012) REMUX 1080p Latino – CMHDD

162 vistas

Información de Parental Guidance (2012) REMUX 1080p Latino – CMHDD

Datos de la película

  • Calidad: Full 1080p
  • Audio: Español Latino AC3 5.1 BLURAY - Ingles DTS 5.1 BLURAY
  • Subtitulos: Español Latino PGS
  • Resolución: 1920x1080p
  • Formato: MKV
  • Codec: H.264
  • Encoder: Dracarys
  • Mediainfo: Clic para Mostrar Datos Ver
  • Format                      : Matroska
    Format version              : Version 4
    File size                   : 25.1 GiB
    Duration                    : 1 h 44 min
    Overall bit rate mode       : Variable
    Overall bit rate            : 34.3 Mb/s
    Movie name                  : Parental Guidance (2012) REMUX 1080p Latino - CMHDD
    Encoded date                : UTC 2021-09-01 18:42:23
    Writing application         : mkvmerge v17.0.0 ('Be Ur Friend') 64-bit
    Writing library             : libebml v1.3.5 + libmatroska v1.4.8

    Video
    ID                          : 1
    Format                      : AVC
    Format/Info                 : Advanced Video Codec
    Format profile              : High@L4.1
    Format settings             : CABAC / 4 Ref Frames
    Format settings, CABAC      : Yes
    Format settings, Reference  : 4 frames
    Codec ID                    : V_MPEG4/ISO/AVC
    Duration                    : 1 h 44 min
    Bit rate mode               : Variable
    Bit rate                    : 29.8 Mb/s
    Maximum bit rate            : 31.0 Mb/s
    Width                       : 1 920 pixels
    Height                      : 1 080 pixels
    Display aspect ratio        : 16:9
    Frame rate mode             : Constant
    Frame rate                  : 23.976 (24000/1001) FPS
    Color space                 : YUV
    Chroma subsampling          : 4:2:0
    Bit depth                   : 8 bits
    Scan type                   : Progressive
    Bits/(Pixel*Frame)          : 0.599
    Stream size                 : 21.8 GiB (87%)
    Default                     : Yes
    Forced                      : No

    Audio #1
    ID                          : 2
    Format                      : DTS XLL
    Format/Info                 : Digital Theater Systems
    Commercial name             : DTS-HD Master Audio
    Codec ID                    : A_DTS
    Duration                    : 1 h 44 min
    Bit rate mode               : Variable
    Bit rate                    : 3 612 kb/s
    Channel(s)                  : 6 channels
    Channel layout              : C L R Ls Rs LFE
    Sampling rate               : 48.0 kHz
    Frame rate                  : 93.750 FPS (512 SPF)
    Bit depth                   : 24 bits
    Compression mode            : Lossless
    Stream size                 : 2.64 GiB (11%)
    Language                    : English
    Default                     : No
    Forced                      : No

    Audio #2
    ID                          : 3
    Format                      : AC-3
    Format/Info                 : Audio Coding 3
    Commercial name             : Dolby Digital
    Codec ID                    : A_AC3
    Duration                    : 1 h 44 min
    Bit rate mode               : Constant
    Bit rate                    : 448 kb/s
    Channel(s)                  : 6 channels
    Channel layout              : L R C LFE Ls Rs
    Sampling rate               : 48.0 kHz
    Frame rate                  : 31.250 FPS (1536 SPF)
    Compression mode            : Lossy
    Stream size                 : 335 MiB (1%)
    Language                    : English
    Service kind                : Complete Main
    Default                     : No
    Forced                      : No

    Audio #3
    ID                          : 4
    Format                      : AC-3
    Format/Info                 : Audio Coding 3
    Commercial name             : Dolby Digital
    Codec ID                    : A_AC3
    Duration                    : 1 h 44 min
    Bit rate mode               : Constant
    Bit rate                    : 448 kb/s
    Channel(s)                  : 6 channels
    Channel layout              : L R C LFE Ls Rs
    Sampling rate               : 48.0 kHz
    Frame rate                  : 31.250 FPS (1536 SPF)
    Compression mode            : Lossy
    Stream size                 : 335 MiB (1%)
    Language                    : Spanish
    Service kind                : Complete Main
    Default                     : Yes
    Forced                      : No

    Text
    ID                          : 5
    Format                      : PGS
    Muxing mode                 : zlib
    Codec ID                    : S_HDMV/PGS
    Codec ID/Info               : Picture based subtitle format used on BDs/HD-DVDs
    Duration                    : 1 h 43 min
    Bit rate                    : 47.5 kb/s
    Count of elements           : 3416
    Stream size                 : 35.3 MiB (0%)
    Language                    : Spanish
    Default                     : No
    Forced                      : No

    Menu
    00:00:00.000                : en:Chapter 1
    00:04:49.789                : en:Chapter 2
    00:06:42.443                : en:Chapter 3
    00:09:24.855                : en:Chapter 4
    00:13:08.162                : en:Chapter 5
    00:16:42.835                : en:Chapter 6
    00:19:11.650                : en:Chapter 7
    00:22:42.861                : en:Chapter 8
    00:25:47.379                : en:Chapter 9
    00:30:00.799                : en:Chapter 10
    00:31:15.123                : en:Chapter 11
    00:33:49.485                : en:Chapter 12
    00:35:27.333                : en:Chapter 13
    00:37:01.844                : en:Chapter 14
    00:39:54.975                : en:Chapter 15
    00:41:19.059                : en:Chapter 16
    00:48:07.009                : en:Chapter 17
    00:51:57.280                : en:Chapter 18
    00:54:04.366                : en:Chapter 19
    00:57:10.009                : en:Chapter 20
    00:59:36.739                : en:Chapter 21
    01:05:33.137                : en:Chapter 22
    01:09:09.687                : en:Chapter 23
    01:13:21.438                : en:Chapter 24
    01:15:12.591                : en:Chapter 25
    01:20:22.067                : en:Chapter 26
    01:26:16.045                : en:Chapter 27
    01:28:42.275                : en:Chapter 28
    01:31:47.210                : en:Chapter 29
    01:35:07.451                : en:Chapter 30
    01:37:28.759                : en:Chapter 31

  • Peso: 25.1 GiB

Sinopsis

Artie y Diane Decker, un matrimonio en edad de jubilación que, tendrá que desempolvar el manual de cómo educar a los niños. Su hija, pide ayuda a Artie para que se encargue de sus tres hijos mientras ella permanece fuera de la ciudad por motivos de trabajo. Una propuesta a la que, por el bien de su relación, el abuelo no puede negarse. El matrimonio pasará así unos días con sus nietos, intentando educarles lo mejor posible, aunque no será nada fácil. El estilo de vida que llevan, lleno de estrés por las tareas del colegio entran en conflicto con sus ideales y la casa pierde su anterior tranquilidad para siempre. Artie y Diane tendrán que aprender técnicas novedosas para aplicarse ellos mismos y poder así transmitírselas a sus nietos.

Ficha técnica

  • Titulo original: Parental Guidance
  • Fecha de lanzamiento: 25-12-2012 (United States of America)
  • Director: Andy Fickman
  • Género: Comedia

Video trailer de la película

Enlaces de descarga

Rip de Bluray

Descargar Parental Guidance (2012) REMUX 1080p Latino – CMHDD


Aportes de DPeliculasHDmega la pass es:dpeliculashdmega.org Aportes de CinemaniaHD la pass es:cinemaniahdd.com
Guardado en : Comedia

Películas relacionadas

  • Hombre de familia (2000) REMUX 1080p Latino

    Hombre de familia (2000) REMUX 1080p Latino

    2000
    Hombre de familia (2000) REMUX 1080p Latino

    2h 1m 2000

    Descargar Hombre de familia (2000) REMUX 1080p Latino. Jack Campbell es un egocéntrico broker de Wall...

    Director: Robert Schroer

    Género: Comedia

    Actores: Wass Stevens

  • Te Amo Brother (2009) REMUX 1080p Latino

    Te Amo Brother (2009) REMUX 1080p Latino

    2009
    Te Amo Brother (2009) REMUX 1080p Latino

    1h 45m 2009

    Descargar Te Amo Brother (2009) REMUX 1080p Latino. Peter Klaven (Paul Rudd) es un joven que vive muy...

    Director: Scott Robertson

    Género: Comedia

    Actores: Vicki Davis

  • Asústame (2020) HD 1080p Latino

    Asústame (2020) HD 1080p Latino

    2020
    Asústame (2020) HD 1080p Latino

    1h 44m 2020

    Descargar Asústame (2020) HD 1080p Latino. Durante un corte de energía, dos extraños cuentan historias...

    Director: Josh Ruben

    Género: Comedia

    Actores: Rebecca Drysdale

  • Asústame (2020) PLACEBO Full HD 1080p Latino

    Asústame (2020) PLACEBO Full HD 1080p Latino

    2020
    Asústame (2020) PLACEBO Full HD 1080p Latino

    1h 44m 2020

    Descargar Asústame (2020) PLACEBO Full HD 1080p Latino. Durante un corte de energía, dos extraños...

    Director: Josh Ruben

    Género: Comedia

    Actores: Rebecca Drysdale

  • Asústame (2020) REMUX 1080p Latino

    Asústame (2020) REMUX 1080p Latino

    2020
    Asústame (2020) REMUX 1080p Latino

    1h 44m 2020

    Descargar Asústame (2020) REMUX 1080p Latino. Durante un corte de energía, dos extraños cuentan historias...

    Director: Josh Ruben

    Género: Comedia

    Actores: Rebecca Drysdale

descargar Parental Guidance (2012) REMUX 1080p Latino – CMHDD Full 1080p 1080p gratis, Parental Guidance (2012) REMUX 1080p Latino – CMHDD Full 1080p mega 1 link, Parental Guidance (2012) REMUX 1080p Latino – CMHDD Full 1080p pelicula completa, descargar Parental Guidance (2012) REMUX 1080p Latino – CMHDD Full 1080p gratis en mega.

Parental Guidance (2012) REMUX 1080p Latino – CMHDD pelicula full hd, Parental Guidance (2012) REMUX 1080p Latino – CMHDD mega latino, Parental Guidance (2012) REMUX 1080p Latino – CMHDD 4k latino, Parental Guidance (2012) REMUX 1080p Latino – CMHDD pelicula completa, Parental Guidance (2012) REMUX 1080p Latino – CMHDD descargar gratis, descargar Parental Guidance (2012) REMUX 1080p Latino – CMHDD pelicula latino, Parental Guidance (2012) REMUX 1080p Latino – CMHDD 1 link mega, Parental Guidance (2012) REMUX 1080p Latino – CMHDD 1 link google drive, Parental Guidance (2012) REMUX 1080p Latino – CMHDD hd 1080p latino.
Comentarios 0