×

¿Problemas para descargar con Mozilla, EDGE? Deshabilita la opción "Abrir vinculos en una pestaña nueva" tal como lo muestra ésta imagen.

Parasitos (2019) PLACEBO Full HD 1080p Latino

4.925 vistas

Información de Parasitos (2019) PLACEBO Full HD 1080p Latino

Datos de la película

  • Calidad: Full 1080p
  • Audio: Se especifica abajo de la Sinopsis
  • Subtitulos: Español Latino SRT- FORZADOS SRT
  • Resolución: 1920x1080p
  • Formato: MKV
  • Codec: H.264
  • Encoder: Melkor
  • Mediainfo: Clic para Mostrar Datos Ver
  • Parasitos (2019) PLACEBO 1080p Latino.mkv
    Format                      : Matroska
    Format version              : Version 4
    File size                   : 5.51 GiB
    Duration                    : 2 h 12 min
    Overall bit rate            : 5 978 kb/s
    Movie name                  : Parasite (2019) [Gisaengchung] CinemaniaHDD.Net
    Encoded date                : UTC 2022-08-21 17:44:01
    Writing application         : mkvmerge v56.1.0 ('My Friend') 64-bit
    Writing library             : libebml v1.4.2 + libmatroska v1.6.4
    Attachments                 : CINEMANIAHD.png

    Video
    ID                          : 1
    Format                      : AVC
    Format/Info                 : Advanced Video Codec
    Format profile              : High@L4.1
    Format settings             : CABAC / 4 Ref Frames
    Format settings, CABAC      : Yes
    Format settings, Reference  : 4 frames
    Codec ID                    : V_MPEG4/ISO/AVC
    Duration                    : 2 h 12 min
    Bit rate                    : 4 210 kb/s
    Width                       : 1 920 pixels
    Height                      : 1 080 pixels
    Display aspect ratio        : 16:9
    Frame rate mode             : Constant
    Frame rate                  : 23.976 (24000/1001) FPS
    Color space                 : YUV
    Chroma subsampling          : 4:2:0
    Bit depth                   : 8 bits
    Scan type                   : Progressive
    Bits/(Pixel*Frame)          : 0.085
    Stream size                 : 3.88 GiB (70%)
    Title                       : Full HD1080p [CinemaniaHDD]
    Writing library             : x264 core 163 r3059 b684ebe0
    Encoding settings           : cabac=1 / ref=4 / deblock=1:0:0 / analyse=0x3:0x133 / me=tesa / subme=11 / psy=1 / psy_rd=1.00:0.00 / mixed_ref=1 / me_range=24 / chroma_me=1 / trellis=2 / 8x8dct=1 / cqm=0 / deadzone=21,11 / fast_pskip=0 / chroma_qp_offset=-2 / threads=24 / lookahead_threads=6 / sliced_threads=0 / nr=0 / decimate=1 / interlaced=0 / bluray_compat=0 / constrained_intra=0 / bframes=16 / b_pyramid=2 / b_adapt=2 / b_bias=0 / direct=3 / weightb=1 / open_gop=0 / weightp=2 / keyint=240 / keyint_min=24 / scenecut=40 / intra_refresh=0 / rc_lookahead=60 / rc=crf / mbtree=1 / crf=19.0 / qcomp=0.60 / qpmin=0 / qpmax=69 / qpstep=4 / vbv_maxrate=62500 / vbv_bufsize=78125 / crf_max=0.0 / nal_hrd=none / filler=0 / ip_ratio=1.40 / aq=1:1.00
    Default                     : Yes
    Forced                      : Yes
    Color range                 : Limited
    Color primaries             : BT.709
    Transfer characteristics    : BT.709
    Matrix coefficients         : BT.709

    Audio #1
    ID                          : 2
    Format                      : AC-3
    Format/Info                 : Audio Coding 3
    Commercial name             : Dolby Digital
    Codec ID                    : A_AC3
    Duration                    : 2 h 12 min
    Bit rate mode               : Constant
    Bit rate                    : 256 kb/s
    Channel(s)                  : 2 channels
    Channel layout              : L R
    Sampling rate               : 48.0 kHz
    Frame rate                  : 31.250 FPS (1536 SPF)
    Compression mode            : Lossy
    Stream size                 : 242 MiB (4%)
    Title                       : Español Latino [CinemaniaHDD]
    Language                    : Spanish
    Service kind                : Complete Main
    Default                     : Yes
    Forced                      : Yes

    Audio #2
    ID                          : 3
    Format                      : DTS
    Format/Info                 : Digital Theater Systems
    Codec ID                    : A_DTS
    Duration                    : 2 h 12 min
    Bit rate mode               : Constant
    Bit rate                    : 1 509 kb/s
    Channel(s)                  : 6 channels
    Channel layout              : C L R Ls Rs LFE
    Sampling rate               : 48.0 kHz
    Frame rate                  : 93.750 FPS (512 SPF)
    Bit depth                   : 24 bits
    Compression mode            : Lossy
    Stream size                 : 1.39 GiB (25%)
    Title                       : Coreano [CinemaniaHDD]
    Language                    : Korean
    Default                     : No
    Forced                      : No

    Text #1
    ID                          : 4
    Format                      : UTF-8
    Codec ID                    : S_TEXT/UTF8
    Codec ID/Info               : UTF-8 Plain Text
    Duration                    : 2 h 11 min
    Bit rate                    : 0 b/s
    Count of elements           : 3
    Stream size                 : 75.0 Bytes (0%)
    Title                       : Forzados-SRT [CinemaniaHDD]
    Language                    : Spanish
    Default                     : Yes
    Forced                      : Yes

    Text #2
    ID                          : 5
    Format                      : UTF-8
    Codec ID                    : S_TEXT/UTF8
    Codec ID/Info               : UTF-8 Plain Text
    Duration                    : 2 h 11 min
    Bit rate                    : 55 b/s
    Count of elements           : 1614
    Stream size                 : 53.7 KiB (0%)
    Title                       : Español-SRT [CinemaniaHDD]
    Language                    : Spanish
    Default                     : No
    Forced                      : No

    Text #3
    ID                          : 6
    Format                      : UTF-8
    Codec ID                    : S_TEXT/UTF8
    Codec ID/Info               : UTF-8 Plain Text
    Duration                    : 2 h 5 min
    Bit rate                    : 53 b/s
    Count of elements           : 1647
    Stream size                 : 49.5 KiB (0%)
    Title                       : Ingles [CinemaniaHDD]
    Language                    : Korean
    Default                     : No
    Forced                      : No

    Menu
    00:00:00.000                : Chapter 1
    00:05:44.802                : Chapter 2
    00:12:16.610                : Chapter 3
    00:20:35.484                : Chapter 4
    00:29:21.926                : Chapter 5
    00:37:05.348                : Chapter 6
    00:46:19.943                : Chapter 7
    00:53:52.979                : Chapter 8
    01:02:55.646                : Chapter 9
    01:12:10.242                : Chapter 10
    01:23:25.834                : Chapter 11
    01:32:19.659                : Chapter 12
    01:41:22.284                : Chapter 13
    01:48:21.912                : Chapter 14
    01:56:07.502                : Chapter 15
    02:07:06.744                : Chapter 16

  • Peso: 5.51 GiB

Sinopsis

Descargar Parasitos (2019) PLACEBO Full HD 1080p Latino. Tanto Gi Taek (Song Kang Ho) como su familia están sin trabajo. Cuando su hijo mayor, Gi Woo (Choi Woo Shik), empieza a recibir clases particulares en casa de Park (Lee Sun Gyun), las dos familias, que tienen mucho en común pese a pertenecer a dos mundos totalmente distintos, comienzan una interrelación de resultados imprevisibles.

Español Latino AC3 2.0 Web – Coreano DTS 5.1 BluRay
RESUBIDO VERSION PLACEBO!!!

Ficha técnica

Video trailer de la película

Enlaces de descarga

Rip de Bluray

Descargar Parasitos (2019) PLACEBO Full HD 1080p Latino




Aportes de DPeliculasHDmega la pass es:dpeliculashdmega.org Aportes de CinemaniaHD la pass es:cinemaniahdd.com

Películas relacionadas

  • Borrego: Sal Del Camino (2022) HD 1080p Latino

    Borrego: Sal Del Camino (2022) HD 1080p Latino

    2022
    Borrego: Sal Del Camino (2022) HD 1080p Latino

    1h 42m 2022

    Descargar Borrego: Sal Del Camino (2022) HD 1080p Latino. Una joven botánica se traslada a un pequeño...

    Director: Jesse Harris

    Género: Crimen

    Actores: Olivia Trujillo

  • Borrego: Sal Del Camino (2022) REMUX 1080p Latino

    Borrego: Sal Del Camino (2022) REMUX 1080p Latino

    2022
    Borrego: Sal Del Camino (2022) REMUX 1080p Latino

    1h 42m 2022

    Descargar Borrego: Sal Del Camino (2022) REMUX 1080p Latino. Una joven botánica se traslada a un pequeño...

    Director: Jesse Harris

    Género: Crimen

    Actores: Olivia Trujillo

  • Tren Bala (2022) WEB-DL 4K UHD HDR Latino

    Tren Bala (2022) WEB-DL 4K UHD HDR Latino

    2022
    Tren Bala (2022) WEB-DL 4K UHD HDR Latino

    2h 7m 2022

    Descargar Tren Bala (2022) WEB-DL 4K UHD HDR Latino. El desafortunado asesino "Catarina" está decidido...

    Director: Paul Barry

    Género: 4K HDR

    Actores: Zooey Miyoshi

descargar Parasitos (2019) PLACEBO Full HD 1080p Latino Full 1080p 1080p gratis, Parasitos (2019) PLACEBO Full HD 1080p Latino Full 1080p mega 1 link, Parasitos (2019) PLACEBO Full HD 1080p Latino Full 1080p pelicula completa, descargar Parasitos (2019) PLACEBO Full HD 1080p Latino Full 1080p gratis en mega.

Parasitos (2019) PLACEBO Full HD 1080p Latino pelicula full hd, Parasitos (2019) PLACEBO Full HD 1080p Latino mega latino, Parasitos (2019) PLACEBO Full HD 1080p Latino 4k latino, Parasitos (2019) PLACEBO Full HD 1080p Latino pelicula completa, Parasitos (2019) PLACEBO Full HD 1080p Latino descargar gratis, descargar Parasitos (2019) PLACEBO Full HD 1080p Latino pelicula latino, Parasitos (2019) PLACEBO Full HD 1080p Latino 1 link mega, Parasitos (2019) PLACEBO Full HD 1080p Latino 1 link google drive, Parasitos (2019) PLACEBO Full HD 1080p Latino hd 1080p latino.
Comentarios 0