Para toda la vida (2020) REMUX 1080p Latino

9 vistas
1 estrella2 estrellas3 estrellas4 estrellas5 estrellas (1 votos, promedio: 5,00 de 5)
Cargando...

Información de Para toda la vida (2020) REMUX 1080p Latino

Datos de la película

  • Calidad: Full 1080p
  • Audio: Español Latino DTS 5.1 BLURAY - Ingles DTS-HD 5.1 BLURAY
  • Subtitulos: Español Latino PGS - Ingles PGS
  • Resolución: 1920x1080p
  • Formato: MKV
  • Codec: H.264
  • Encoder: Melkor
  • Mediainfo: Clic para Mostrar Datos Ver
  • Para Toda La Vida (2020) REMUX 1080p Latino.mkv
    Format                      : Matroska
    Format version              : Version 4
    File size                   : 23.3 GiB
    Duration                    : 1 h 31 min
    Overall bit rate mode       : Variable
    Overall bit rate            : 36.5 Mb/s
    Movie name                  : All My Life (2020) CinemaniaHDD.Net
    Encoded date                : UTC 2021-02-21 01:11:18
    Writing application         : mkvmerge v51.0.0 ('I Wish') 64-bit
    Writing library             : libebml v1.4.0 + libmatroska v1.6.2
    Attachments                 : CINEMANIAHD.png

    Video
    ID                          : 1
    ID in the original source m : 4113 (0x1011)
    Format                      : AVC
    Format/Info                 : Advanced Video Codec
    Format profile              : High@L4.1
    Format settings             : CABAC / 2 Ref Frames
    Format settings, CABAC      : Yes
    Format settings, Reference  : 2 frames
    Codec ID                    : V_MPEG4/ISO/AVC
    Duration                    : 1 h 31 min
    Bit rate mode               : Variable
    Bit rate                    : 32.2 Mb/s
    Width                       : 1 920 pixels
    Height                      : 1 080 pixels
    Display aspect ratio        : 16:9
    Frame rate mode             : Constant
    Frame rate                  : 23.976 (24000/1001) FPS
    Color space                 : YUV
    Chroma subsampling          : 4:2:0
    Bit depth                   : 8 bits
    Scan type                   : Progressive
    Bits/(Pixel*Frame)          : 0.647
    Stream size                 : 20.6 GiB (88%)
    Title                       : REMUX HD1080p [CinemaniaHDD]
    Language                    : English
    Default                     : Yes
    Forced                      : No
    Original source medium      : Blu-ray

    Audio #1
    ID                          : 2
    ID in the original source m : 4353 (0x1101)
    Format                      : DTS
    Format/Info                 : Digital Theater Systems
    Codec ID                    : A_DTS
    Duration                    : 1 h 31 min
    Bit rate mode               : Constant
    Bit rate                    : 768 kb/s
    Channel(s)                  : 6 channels
    Channel layout              : C L R Ls Rs LFE
    Sampling rate               : 48.0 kHz
    Frame rate                  : 93.750 FPS (512 SPF)
    Bit depth                   : 24 bits
    Compression mode            : Lossy
    Stream size                 : 502 MiB (2%)
    Title                       : Español Latino [CinemaniaHDD]
    Language                    : Spanish
    Default                     : Yes
    Forced                      : No
    Original source medium      : Blu-ray

    Audio #2
    ID                          : 3
    ID in the original source m : 4352 (0x1100)
    Format                      : DTS XLL
    Format/Info                 : Digital Theater Systems
    Commercial name             : DTS-HD Master Audio
    Codec ID                    : A_DTS
    Duration                    : 1 h 31 min
    Bit rate mode               : Variable
    Bit rate                    : 3 500 kb/s
    Channel(s)                  : 6 channels
    Channel layout              : C L R Ls Rs LFE
    Sampling rate               : 48.0 kHz
    Frame rate                  : 93.750 FPS (512 SPF)
    Bit depth                   : 24 bits
    Compression mode            : Lossless
    Stream size                 : 2.24 GiB (10%)
    Title                       : Ingles [CinemaniaHDD]
    Language                    : English
    Default                     : No
    Forced                      : No
    Original source medium      : Blu-ray

    Text #1
    ID                          : 4
    ID in the original source m : 4609 (0x1201)
    Format                      : PGS
    Muxing mode                 : zlib
    Codec ID                    : S_HDMV/PGS
    Codec ID/Info               : Picture based subtitle format used on BDs/HD-DVDs
    Duration                    : 1 h 30 min
    Bit rate                    : 35.7 kb/s
    Count of elements           : 2458
    Stream size                 : 23.1 MiB (0%)
    Title                       : Español-PGS [CinemaniaHDD]
    Language                    : Spanish
    Default                     : No
    Forced                      : No
    Original source medium      : Blu-ray

    Text #2
    ID                          : 5
    ID in the original source m : 4608 (0x1200)
    Format                      : PGS
    Muxing mode                 : zlib
    Codec ID                    : S_HDMV/PGS
    Codec ID/Info               : Picture based subtitle format used on BDs/HD-DVDs
    Duration                    : 1 h 28 min
    Bit rate                    : 46.7 kb/s
    Count of elements           : 2762
    Stream size                 : 29.7 MiB (0%)
    Title                       : Ingles-PGS [CinemaniaHDD]
    Language                    : Spanish
    Default                     : No
    Forced                      : No
    Original source medium      : Blu-ray

    Text #3
    ID                          : 6
    Format                      : UTF-8
    Codec ID                    : S_TEXT/UTF8
    Codec ID/Info               : UTF-8 Plain Text
    Duration                    : 1 h 25 min
    Bit rate                    : 0 b/s
    Count of elements           : 17
    Stream size                 : 516 Bytes (0%)
    Title                       : Forzados-SRT [CinemaniaHDD]
    Language                    : Spanish
    Default                     : Yes
    Forced                      : No

    Text #4
    ID                          : 7
    Format                      : UTF-8
    Codec ID                    : S_TEXT/UTF8
    Codec ID/Info               : UTF-8 Plain Text
    Duration                    : 1 h 25 min
    Bit rate                    : 57 b/s
    Count of elements           : 1224
    Stream size                 : 35.9 KiB (0%)
    Title                       : Español-SRT [CinemaniaHDD]
    Language                    : Spanish
    Default                     : No
    Forced                      : No

    Menu
    00:00:00.000                : en:Chapter 01
    00:02:17.720                : en:Chapter 02
    00:06:39.440                : en:Chapter 03
    00:12:03.139                : en:Chapter 04
    00:14:09.223                : en:Chapter 05
    00:18:42.996                : en:Chapter 06
    00:23:35.664                : en:Chapter 07
    00:28:27.706                : en:Chapter 08
    00:31:28.636                : en:Chapter 09
    00:35:06.145                : en:Chapter 10
    00:38:12.790                : en:Chapter 11
    00:42:26.335                : en:Chapter 12
    00:47:32.099                : en:Chapter 13
    00:53:48.099                : en:Chapter 14
    01:00:39.844                : en:Chapter 15
    01:02:41.924                : en:Chapter 16
    01:07:08.607                : en:Chapter 17
    01:11:28.784                : en:Chapter 18
    01:19:02.738                : en:Chapter 19
    01:24:55.131                : en:Chapter 20

  • Peso: 23.3 GiB

Sinopsis

Descargar Para toda la vida (2020) REMUX 1080p Latino. Jenn Carter y Sol Chau están enamorados, tienen toda la vida por delante y piensan casarse dentro de unos meses. Pero, en diciembre, a Sol le diagnostican un cáncer terminal, que trunca todos sus planes, haciendo imposible que la boda se celebre en verano. En una carrera contrarreloj, los amigos y la familia de la pareja organizan una colecta en internet para recaudar fondos y conseguir que tengan la boda soñada en tan solo dos semanas. Su gesto desata una ola de generosidad y preocupación entre un gran número de personas que deciden celebrar con ellos el poder del amor. Mientras tanto, la relación de Jenn y Sol se hace aún más profunda, recordándonos que la fuerza del amor verdadero no tiene límites.

Ficha técnica

  • Titulo original: All My Life
  • Fecha de lanzamiento: 23-10-2020 (China, United States of America)
  • Director: Marc Meyers
  • Género: Drama, Remux, Romance
  • Puntuación: 5.0 1 votos
  • Duración:
    1h 33m

Video trailer de la película

Enlaces de descarga

Rip de Bluray

Descargar Para toda la vida (2020) REMUX 1080p Latino




Aportes de DPeliculasHDmega la pass es:dpeliculashdmega.org Aportes de CinemaniaHD la pass es:cinemaniahdd.com
Guardado en : Drama , Remux , Romance

Películas relacionadas

Comentarios 0