×

¿Problemas para descargar con Mozilla, EDGE? Deshabilita la opción "Abrir vinculos en una pestaña nueva" tal como lo muestra ésta imagen.

Papás por Encargo (2023) Temporada 2 WEB-DL 1080p Latino

174 vistas

Información de Papás por Encargo (2023) Temporada 2 WEB-DL 1080p Latino

Datos de la película

  • Calidad: WEBDL
  • Audio: Se especifica abajo de la Sinopsis
  • Subtitulos: Español Latino SRT
  • Resolución: 1920x1080p
  • Formato: MKV
  • Codec: H.264
  • Encoder: Melkor
  • Mediainfo: Clic para Mostrar Datos Ver
  • Papas Por Encargo S02E01 (2023) WebDL 1080p Latino.mkv
    Format                      : Matroska
    Format version              : Version 4
    File size                   : 1.97 GiB
    Duration                    : 39 min 36 s
    Overall bit rate mode       : Variable
    Overall bit rate            : 7 109 kb/s
    Movie name                  : Papas Por Encargo S02E01 CinemaniaHDD.Net
    Encoded date                : UTC 2023-11-08 16:44:18
    Writing application         : mkvmerge v56.1.0 ('My Friend') 64-bit
    Writing library             : libebml v1.4.2 + libmatroska v1.6.4
    Attachments                 : CINEMANIAHD.png
    Site                        : CinemaniaHDD.Net
    Uploader                    : Melkor

    Video
    ID                          : 1
    Format                      : AVC
    Format/Info                 : Advanced Video Codec
    Format profile              : High@L4
    Format settings             : CABAC / 4 Ref Frames
    Format settings, CABAC      : Yes
    Format settings, Reference  : 4 frames
    Codec ID                    : V_MPEG4/ISO/AVC
    Duration                    : 39 min 36 s
    Bit rate mode               : Variable
    Bit rate                    : 6 851 kb/s
    Maximum bit rate            : 12.7 Mb/s
    Width                       : 1 920 pixels
    Height                      : 1 080 pixels
    Display aspect ratio        : 16:9
    Frame rate mode             : Constant
    Frame rate                  : 23.976 (24000/1001) FPS
    Color space                 : YUV
    Chroma subsampling          : 4:2:0
    Bit depth                   : 8 bits
    Scan type                   : Progressive
    Bits/(Pixel*Frame)          : 0.138
    Stream size                 : 1.90 GiB (96%)
    Title                       : WEB HD1080p [CinemaniaHDD]
    Default                     : Yes
    Forced                      : Yes
    Color range                 : Limited
    Color primaries             : BT.709
    Transfer characteristics    : BT.709
    Matrix coefficients         : BT.709

    Audio
    ID                          : 2
    Format                      : E-AC-3
    Format/Info                 : Enhanced AC-3
    Commercial name             : Dolby Digital Plus
    Codec ID                    : A_EAC3
    Duration                    : 39 min 36 s
    Bit rate mode               : Constant
    Bit rate                    : 256 kb/s
    Channel(s)                  : 6 channels
    Channel layout              : L R C LFE Ls Rs
    Sampling rate               : 48.0 kHz
    Frame rate                  : 31.250 FPS (1536 SPF)
    Compression mode            : Lossy
    Stream size                 : 72.5 MiB (4%)
    Title                       : Español Latino [CinemaniaHDD]
    Language                    : Spanish
    Service kind                : Complete Main
    Default                     : Yes
    Forced                      : Yes

    Text
    ID                          : 3
    Format                      : UTF-8
    Codec ID                    : S_TEXT/UTF8
    Codec ID/Info               : UTF-8 Plain Text
    Duration                    : 38 min 9 s
    Bit rate                    : 88 b/s
    Count of elements           : 760
    Stream size                 : 24.6 KiB (0%)
    Title                       : Español-SRT [CinemaniaHDD]
    Language                    : Spanish
    Default                     : No
    Forced                      : No

  • Peso: 1.7 GiB Aprox C/U -- 12.8 GiB -- 7 Chapters

Sinopsis

Descargar Papás por Encargo (2023) Temporada 2 WEB-DL 1080p Latino. Una niña llamada California, quien se embarca en un viaje por México junto a sus tres papás para reencontrarse con su mamá tras una enigmática y prolongada desaparición.

Español Latino EAC3 5.1 D+

Ficha técnica

Video trailer de la película

Enlaces de descarga

Rip de Bluray

Descargar Papás por Encargo (2023) Temporada 2 WEB-DL 1080p Latino




Aportes de DPeliculasHDmega la pass es:dpeliculashdmega.org Aportes de CinemaniaHD la pass es:cinemaniahdd.com Aportes recientes:cinemaniahdd.net
Guardado en : Comedia , Drama , Series

Películas relacionadas

  • El Oso (2022) Temporada 2 WEB-DL 1080p Latino

    El Oso (2022) Temporada 2 WEB-DL 1080p Latino

    2022
    El Oso (2022) Temporada 2 WEB-DL 1080p Latino

    0h 0m 2022

    Descargar El Oso (2022) Temporada 2 WEB-DL 1080p Latino. Carmy, un joven chef de alta cocina, vuelve...

    Director: Christopher Storer

    Género: Comedia

    Actores: Matty Matheson

  • El Oso (2022) Temporada 1 WEB-DL 1080p Latino

    El Oso (2022) Temporada 1 WEB-DL 1080p Latino

    2022
    El Oso (2022) Temporada 1 WEB-DL 1080p Latino

    0h 0m 2022

    Descargar El Oso (2022) Temporada 1 WEB-DL 1080p Latino. Carmy, un joven chef de alta cocina, vuelve...

    Director: Christopher Storer

    Género: Comedia

    Actores: Matty Matheson

  • Wolves (2022) AMZN WEB-DL 1080p Latino

    Wolves (2022) AMZN WEB-DL 1080p Latino

    2022
    Wolves (2022) AMZN WEB-DL 1080p Latino

    1h 43m 2022

    Un joven solitario se depara con una serie de crímenes sin resolver, que involucran animales mutilados...

    Director: Danny Dunlop

    Género: Crimen

    Actores: Rod Keith

descargar Papás por Encargo (2023) Temporada 2 WEB-DL 1080p Latino WEBDL 1080p gratis, Papás por Encargo (2023) Temporada 2 WEB-DL 1080p Latino WEBDL mega 1 link, Papás por Encargo (2023) Temporada 2 WEB-DL 1080p Latino WEBDL serie completa, descargar Papás por Encargo (2023) Temporada 2 WEB-DL 1080p Latino WEBDL gratis en mega.

Papás por Encargo (2023) Temporada 2 WEB-DL 1080p Latino pelicula full hd, Papás por Encargo (2023) Temporada 2 WEB-DL 1080p Latino mega latino, Papás por Encargo (2023) Temporada 2 WEB-DL 1080p Latino 4k latino, Papás por Encargo (2023) Temporada 2 WEB-DL 1080p Latino pelicula completa, Papás por Encargo (2023) Temporada 2 WEB-DL 1080p Latino descargar gratis, descargar Papás por Encargo (2023) Temporada 2 WEB-DL 1080p Latino pelicula latino, Papás por Encargo (2023) Temporada 2 WEB-DL 1080p Latino 1 link mega, Papás por Encargo (2023) Temporada 2 WEB-DL 1080p Latino 1 link google drive, Papás por Encargo (2023) Temporada 2 WEB-DL 1080p Latino hd 1080p latino.
Comentarios 0