×

¿Problemas para descargar con Mozilla, EDGE? Deshabilita la opción "Abrir vinculos en una pestaña nueva" tal como lo muestra ésta imagen.

Papa sdokhni (2018) WEB-DL 1080p Latino

683 vistas

Información de Papa sdokhni (2018) WEB-DL 1080p Latino

Datos de la película

  • Calidad: WEBDL
  • Audio: Se especifica abajo de la Sinopsis
  • Subtitulos: No
  • Resolución: 1920x804
  • Formato: MKV
  • Codec: H.264
  • Encoder: cinemaniahdd
  • Mediainfo: Clic para Mostrar Datos Ver
  • Papa sdokhni (2018) WEB-DL 1080p Latino.mkv
    Format                      : Matroska
    Format version              : Version 4
    File size                   : 3.41 GiB
    Duration                    : 1 h 34 min
    Overall bit rate            : 5 173 kb/s
    Movie name                  : Papa sdokhni (2018) - CinemaniaHDD.Net
    Encoded date                : UTC 2020-03-10 21:58:51
    Writing application         : mkvmerge v42.0.0 ('Overtime') 64-bit
    Writing library             : libebml v1.3.10 + libmatroska v1.5.2

    Video
    ID                          : 1
    Format                      : AVC
    Format/Info                 : Advanced Video Codec
    Format profile              : High@L4
    Format settings             : CABAC / 5 Ref Frames
    Format settings, CABAC      : Yes
    Format settings, ReFrames   : 5 frames
    Codec ID                    : V_MPEG4/ISO/AVC
    Duration                    : 1 h 34 min
    Bit rate                    : 4 531 kb/s
    Width                       : 1 920 pixels
    Height                      : 804 pixels
    Display aspect ratio        : 2.40:1
    Frame rate mode             : Constant
    Frame rate                  : 25.000 FPS
    Color space                 : YUV
    Chroma subsampling          : 4:2:0
    Bit depth                   : 8 bits
    Scan type                   : Progressive
    Bits/(Pixel*Frame)          : 0.117
    Stream size                 : 2.98 GiB (88%)
    Title                       : CinemaniaHDD
    Language                    : Russian
    Default                     : Yes
    Forced                      : No
    Color range                 : Limited
    Color primaries             : BT.709
    Transfer characteristics    : BT.709
    Matrix coefficients         : BT.709

    Audio #1
    ID                          : 2
    Format                      : AC-3
    Format/Info                 : Audio Coding 3
    Commercial name             : Dolby Digital
    Codec ID                    : A_AC3
    Duration                    : 1 h 34 min
    Bit rate mode               : Constant
    Bit rate                    : 256 kb/s
    Channel(s)                  : 2 channels
    Channel layout              : L R
    Sampling rate               : 48.0 kHz
    Frame rate                  : 31.250 FPS (1536 SPF)
    Bit depth                   : 16 bits
    Compression mode            : Lossy
    Stream size                 : 173 MiB (5%)
    Title                       : Español latino [CinemaniaHDD]
    Language                    : Spanish
    Service kind                : Complete Main
    Default                     : Yes
    Forced                      : No

    Audio #2
    ID                          : 3
    Format                      : AC-3
    Format/Info                 : Audio Coding 3
    Commercial name             : Dolby Digital
    Codec ID                    : A_AC3
    Duration                    : 1 h 34 min
    Bit rate mode               : Constant
    Bit rate                    : 384 kb/s
    Channel(s)                  : 6 channels
    Channel layout              : L R C LFE Ls Rs
    Sampling rate               : 48.0 kHz
    Frame rate                  : 31.250 FPS (1536 SPF)
    Bit depth                   : 16 bits
    Compression mode            : Lossy
    Stream size                 : 259 MiB (7%)
    Title                       : Ruso [CinemaniaHDD]
    Language                    : Russian
    Service kind                : Complete Main
    Default                     : No
    Forced                      : No

    Menu
    00:00:00.000                : en:1
    00:12:27.440                : en:2
    00:16:55.960                : en:3
    00:23:46.680                : en:4
    00:29:55.519                : en:5
    00:38:35.118                : en:6
    00:49:26.078                : en:7
    00:55:22.637                : en:8
    01:03:58.917                : en:9
    01:09:45.036                : en:10
    01:18:30.435                : en:11
    01:29:01.155                : en:12

     

  • Peso: 3.41 GiB

Sinopsis

Andrey, un detective y el padre más horrible del mundo, reúne a un terrible grupo de personas en su departamento: su resentida actriz actriz, un matón enojado y un policía engañado. Cada uno de ellos tiene una razón para querer venganza.

Español Latino AC3 2.0 WEB-DL – Ruso AC3 5.1 WEB-DL

Ficha técnica

Video trailer de la película

Enlaces de descarga

Rip de Bluray

Descargar Papa sdokhni (2018) WEB-DL 1080p Latino




Aportes de DPeliculasHDmega la pass es:dpeliculashdmega.org Aportes de CinemaniaHD la pass es:cinemaniahdd.com
Guardado en : Acción , Comedia , Crimen , Suspenso

Películas relacionadas

  • Wire Room (2022) HD 1080p Latino

    Wire Room (2022) HD 1080p Latino

    2022
    Wire Room (2022) HD 1080p Latino

    1h 37m 2022

    Descargar Wire Room (2022) HD 1080p Latino. Mientras está de servicio en la sala de cables, un agente...

    Director: Matt Eskandari

    Género: Acción

    Actores: Texas Battle

  • Wire Room (2022) PLACEBO Full HD 1080p Latino

    Wire Room (2022) PLACEBO Full HD 1080p Latino

    2022
    Wire Room (2022) PLACEBO Full HD 1080p Latino

    1h 37m 2022

    Descargar Wire Room (2022) PLACEBO Full HD 1080p Latino. Mientras está de servicio en la sala de cables,...

    Director: Matt Eskandari

    Género: Acción

    Actores: Texas Battle

  • Wire Room (2022) REMUX 1080p Latino

    Wire Room (2022) REMUX 1080p Latino

    2022
    Wire Room (2022) REMUX 1080p Latino

    1h 37m 2022

    Descargar Wire Room (2022) REMUX 1080p Latino. Mientras está de servicio en la sala de cables, un agente...

    Director: Matt Eskandari

    Género: Acción

    Actores: Texas Battle

descargar Papa sdokhni (2018) WEB-DL 1080p Latino WEBDL 1080p gratis, Papa sdokhni (2018) WEB-DL 1080p Latino WEBDL mega 1 link, Papa sdokhni (2018) WEB-DL 1080p Latino WEBDL pelicula completa, descargar Papa sdokhni (2018) WEB-DL 1080p Latino WEBDL gratis en mega.

Papa sdokhni (2018) WEB-DL 1080p Latino pelicula full hd, Papa sdokhni (2018) WEB-DL 1080p Latino mega latino, Papa sdokhni (2018) WEB-DL 1080p Latino 4k latino, Papa sdokhni (2018) WEB-DL 1080p Latino pelicula completa, Papa sdokhni (2018) WEB-DL 1080p Latino descargar gratis, descargar Papa sdokhni (2018) WEB-DL 1080p Latino pelicula latino, Papa sdokhni (2018) WEB-DL 1080p Latino 1 link mega, Papa sdokhni (2018) WEB-DL 1080p Latino 1 link google drive, Papa sdokhni (2018) WEB-DL 1080p Latino hd 1080p latino.
Comentarios 0