×

¿Problemas para descargar con Mozilla, EDGE? Deshabilita la opción "Abrir vinculos en una pestaña nueva" tal como lo muestra ésta imagen.

Panico En Casa (2021) AMZN Web-DL 1080p Latino

148 vistas

Información de Panico En Casa (2021) AMZN Web-DL 1080p Latino

Datos de la película

  • Calidad: WEBDL
  • Audio: Español Latino AC3 5.1 WEB-DL - Ingles AC3 5.1 WEB-DL
  • Subtitulos: Español Latino SRT- FORZADOS SRT
  • Resolución: 1920x1040p
  • Formato: MKV
  • Codec: H.264
  • Encoder: Melkor
  • Mediainfo: Clic para Mostrar Datos Ver
  • Panico En Casa (2021) Web-D 1080p Latino.mkv
    Format                      : Matroska
    Format version              : Version 4
    File size                   : 3.79 GiB
    Duration                    : 1 h 24 min
    Overall bit rate            : 6 412 kb/s
    Movie name                  : Safer At Home (2021) CinemaniaHDD.Net
    Encoded date                : UTC 2021-09-19 23:31:28
    Writing application         : mkvmerge v56.1.0 ('My Friend') 64-bit
    Writing library             : libebml v1.4.2 + libmatroska v1.6.4
    Attachments                 : CINEMANIAHD.png

    Video
    ID                          : 1
    Format                      : AVC
    Format/Info                 : Advanced Video Codec
    Format profile              : High@L4
    Format settings             : CABAC / 4 Ref Frames
    Format settings, CABAC      : Yes
    Format settings, Reference  : 4 frames
    Codec ID                    : V_MPEG4/ISO/AVC
    Duration                    : 1 h 24 min
    Bit rate                    : 4 489 kb/s
    Width                       : 1 920 pixels
    Height                      : 1 040 pixels
    Display aspect ratio        : 1.85:1
    Frame rate mode             : Constant
    Frame rate                  : 23.976 (24000/1001) FPS
    Color space                 : YUV
    Chroma subsampling          : 4:2:0
    Bit depth                   : 8 bits
    Scan type                   : Progressive
    Bits/(Pixel*Frame)          : 0.094
    Stream size                 : 2.66 GiB (70%)
    Title                       : Web HD1080p [CinemaniaHDD]
    Language                    : English
    Default                     : Yes
    Forced                      : Yes
    Color range                 : Limited
    Color primaries             : BT.709
    Transfer characteristics    : BT.709
    Matrix coefficients         : BT.709

    Audio #1
    ID                          : 2
    Format                      : AC-3
    Format/Info                 : Audio Coding 3
    Commercial name             : Dolby Digital
    Codec ID                    : A_AC3
    Duration                    : 1 h 24 min
    Bit rate mode               : Constant
    Bit rate                    : 640 kb/s
    Channel(s)                  : 6 channels
    Channel layout              : L R C LFE Ls Rs
    Sampling rate               : 48.0 kHz
    Frame rate                  : 31.250 FPS (1536 SPF)
    Compression mode            : Lossy
    Stream size                 : 388 MiB (10%)
    Title                       : Español Latino AC3 [CinemaniaHDD]
    Language                    : Spanish
    Service kind                : Complete Main
    Default                     : Yes
    Forced                      : Yes

    Audio #2
    ID                          : 3
    Format                      : E-AC-3
    Format/Info                 : Enhanced AC-3
    Commercial name             : Dolby Digital Plus
    Codec ID                    : A_EAC3
    Duration                    : 1 h 24 min
    Bit rate mode               : Constant
    Bit rate                    : 640 kb/s
    Channel(s)                  : 6 channels
    Channel layout              : L R C LFE Ls Rs
    Sampling rate               : 48.0 kHz
    Frame rate                  : 31.250 FPS (1536 SPF)
    Compression mode            : Lossy
    Stream size                 : 388 MiB (10%)
    Title                       : Ingles [CinemaniaHDD]
    Language                    : English
    Service kind                : Complete Main
    Default                     : No
    Forced                      : No

    Audio #3
    ID                          : 4
    Format                      : E-AC-3
    Format/Info                 : Enhanced AC-3
    Commercial name             : Dolby Digital Plus
    Codec ID                    : A_EAC3
    Duration                    : 1 h 24 min
    Bit rate mode               : Constant
    Bit rate                    : 640 kb/s
    Channel(s)                  : 6 channels
    Channel layout              : L R C LFE Ls Rs
    Sampling rate               : 48.0 kHz
    Frame rate                  : 31.250 FPS (1536 SPF)
    Compression mode            : Lossy
    Stream size                 : 388 MiB (10%)
    Title                       : Español Latino EAC3 [CinemaniaHDD]
    Language                    : Spanish
    Service kind                : Complete Main
    Default                     : No
    Forced                      : No

    Text #1
    ID                          : 5
    Format                      : UTF-8
    Codec ID                    : S_TEXT/UTF8
    Codec ID/Info               : UTF-8 Plain Text
    Duration                    : 1 s 669 ms
    Bit rate                    : 62 b/s
    Count of elements           : 1
    Stream size                 : 13.0 Bytes (0%)
    Title                       : Forzados-SRT [CinemaniaHDD]
    Language                    : Spanish
    Default                     : Yes
    Forced                      : Yes

    Text #2
    ID                          : 6
    Format                      : UTF-8
    Codec ID                    : S_TEXT/UTF8
    Codec ID/Info               : UTF-8 Plain Text
    Duration                    : 1 h 22 min
    Bit rate                    : 77 b/s
    Count of elements           : 1483
    Stream size                 : 46.3 KiB (0%)
    Title                       : Español-SRT [CinemaniaHDD]
    Language                    : Spanish
    Default                     : No
    Forced                      : No

    Text #3
    ID                          : 7
    Format                      : UTF-8
    Codec ID                    : S_TEXT/UTF8
    Codec ID/Info               : UTF-8 Plain Text
    Duration                    : 1 h 22 min
    Bit rate                    : 79 b/s
    Count of elements           : 1488
    Stream size                 : 48.0 KiB (0%)
    Title                       : Ingles-SRT [CinemaniaHDD]
    Language                    : English
    Default                     : No
    Forced                      : No

  • Peso: 3.79 GiB

Sinopsis

Descargar Panico En Casa (2021) AMZN Web-DL 1080p Latino. Tras dos años de pandemia, un grupo de amigos organiza una salvaje fiesta online. Después de tomar éxtasis, las cosas salen terriblemente mal y la seguridad de sus hogares se vuelve más aterradora que el caos de fuera.

Ficha técnica

Video trailer de la película

Enlaces de descarga

Rip de Bluray

Descargar Panico En Casa (2021) AMZN Web-DL 1080p Latino




Aportes de DPeliculasHDmega la pass es:dpeliculashdmega.org Aportes de CinemaniaHD la pass es:cinemaniahdd.com
Guardado en : Suspenso , Terror

Películas relacionadas

  • Resurrección (2022) AMZN WEB-DL 1080p Latino

    Resurrección (2022) AMZN WEB-DL 1080p Latino

    2022
    Resurrección (2022) AMZN WEB-DL 1080p Latino

    1h 43m 2022

    Descargar Resurrección (2022) AMZN Web-DL 1080p Latino. La vida cuidadosamente construida de una mujer...

    Director: Michael Kefeyalew

    Género: Drama

    Actores: Zarra Kaahn

  • Plan De Estudios (2022) NF WEB-DL 1080p Latino

    Plan De Estudios (2022) NF WEB-DL 1080p Latino

    2022
    Plan De Estudios (2022) NF WEB-DL 1080p Latino

    1h 41m 2022

    Un expolicía empieza a trabajar en el instituto en el que su difunto mejor amigo daba clase para enfrentarse...

    Director: Daniel Markowicz

    Género: Crimen

    Actores: Zuzanna Galewicz

  • Locked In (2021) PLACEBO Full HD 1080p Latino

    Locked In (2021) PLACEBO Full HD 1080p Latino

    2021
    Locked In (2021) PLACEBO Full HD 1080p Latino

    1h 30m 2021

    Descargar Locked In (2021) PLACEBO Full HD 1080p Latino. Una madre soltera debe proteger a su hija durante...

    Director: Joe Narode

    Género: Crimen

    Actores: Natalie Smith

  • Locked In (2021) REMUX 1080p Latino

    Locked In (2021) REMUX 1080p Latino

    2021
    Locked In (2021) REMUX 1080p Latino

    1h 30m 2021

    Descargar Locked In (2021) REMUX 1080p Latino. Una madre soltera debe proteger a su hija durante un robo...

    Director: Joe Narode

    Género: Crimen

    Actores: Natalie Smith

  • Nope (2022) [IMAX] REMUX 4K HDR Latino – CMHDD

    Nope (2022) [IMAX] REMUX 4K HDR Latino – CMHDD

    2022
    Nope (2022) [IMAX] REMUX 4K HDR Latino – CMHDD

    2h 15m 2022

    Los habitantes de un remoto pueblo del interior de California, entre los que se encuentran los propietarios...

    Director: Wayne Witherspoon

    Género: Ciencia ficción

    Actores: Wrenn Schmidt

descargar Panico En Casa (2021) AMZN Web-DL 1080p Latino WEBDL 1080p gratis, Panico En Casa (2021) AMZN Web-DL 1080p Latino WEBDL mega 1 link, Panico En Casa (2021) AMZN Web-DL 1080p Latino WEBDL pelicula completa, descargar Panico En Casa (2021) AMZN Web-DL 1080p Latino WEBDL gratis en mega.

Panico En Casa (2021) AMZN Web-DL 1080p Latino pelicula full hd, Panico En Casa (2021) AMZN Web-DL 1080p Latino mega latino, Panico En Casa (2021) AMZN Web-DL 1080p Latino 4k latino, Panico En Casa (2021) AMZN Web-DL 1080p Latino pelicula completa, Panico En Casa (2021) AMZN Web-DL 1080p Latino descargar gratis, descargar Panico En Casa (2021) AMZN Web-DL 1080p Latino pelicula latino, Panico En Casa (2021) AMZN Web-DL 1080p Latino 1 link mega, Panico En Casa (2021) AMZN Web-DL 1080p Latino 1 link google drive, Panico En Casa (2021) AMZN Web-DL 1080p Latino hd 1080p latino.
Comentarios 0