×

¿Problemas para descargar con Mozilla, EDGE? Deshabilita la opción "Abrir vinculos en una pestaña nueva" tal como lo muestra ésta imagen.

Panic Room (2002) WEB-DL 1080p Latino – CMHDD

160 vistas

Información de Panic Room (2002) WEB-DL 1080p Latino – CMHDD

Datos de la película

  • Calidad: WEBDL
  • Audio: Español Latino AC3 5.1 WEB-DL - Ingles AC3 5.1 WEB-DL
  • Subtitulos: Español Latino SRT
  • Resolución: 1920x800p
  • Formato: MKV
  • Codec: H.264
  • Encoder: Dracarys
  • Mediainfo: Clic para Mostrar Datos Ver
  • Format                      : Matroska
    Format version              : Version 4
    File size                   : 6.43 GiB
    Duration                    : 1 h 47 min
    Overall bit rate mode       : Variable
    Overall bit rate            : 8 571 kb/s
    Movie name                  : Panic Room (2002) WEB-DL 1080p Latino - CMHDD
    Encoded date                : UTC 2021-07-22 19:42:35
    Writing application         : mkvmerge v56.1.0 ('My Friend') 64-bit
    Writing library             : libebml v1.4.2 + libmatroska v1.6.4

    Video
    ID                          : 1
    Format                      : AVC
    Format/Info                 : Advanced Video Codec
    Format profile              : High@L4
    Format settings             : CABAC / 4 Ref Frames
    Format settings, CABAC      : Yes
    Format settings, Reference  : 4 frames
    Codec ID                    : V_MPEG4/ISO/AVC
    Duration                    : 1 h 47 min
    Bit rate mode               : Variable
    Bit rate                    : 7 481 kb/s
    Maximum bit rate            : 15.0 Mb/s
    Width                       : 1 920 pixels
    Height                      : 800 pixels
    Display aspect ratio        : 2.40:1
    Frame rate mode             : Constant
    Frame rate                  : 25.000 FPS
    Color space                 : YUV
    Chroma subsampling          : 4:2:0
    Bit depth                   : 8 bits
    Scan type                   : Progressive
    Bits/(Pixel*Frame)          : 0.195
    Stream size                 : 5.61 GiB (87%)
    Writing library             : x264 core 148 r2623 d5b2374
    Encoding settings           : cabac=1 / ref=4 / deblock=1:-1:-1 / analyse=0x3:0x133 / me=umh / subme=9 / psy=1 / psy_rd=1.00:0.15 / mixed_ref=1 / me_range=24 / chroma_me=1 / trellis=2 / 8x8dct=1 / cqm=0 / deadzone=21,11 / fast_pskip=1 / chroma_qp_offset=-3 / threads=25 / lookahead_threads=4 / sliced_threads=0 / nr=150 / decimate=1 / interlaced=0 / bluray_compat=0 / constrained_intra=0 / bframes=8 / b_pyramid=2 / b_adapt=2 / b_bias=0 / direct=3 / weightb=1 / open_gop=0 / weightp=2 / keyint=120 / keyint_min=61 / scenecut=0 / intra_refresh=0 / rc_lookahead=120 / rc=crf / mbtree=1 / crf=18.0 / qcomp=0.60 / qpmin=0 / qpmax=69 / qpstep=4 / vbv_maxrate=15000 / vbv_bufsize=31250 / crf_max=0.0 / nal_hrd=vbr / filler=0 / ip_ratio=1.40 / aq=3:1.00
    Language                    : English
    Default                     : Yes
    Forced                      : No
    Color range                 : Limited
    Color primaries             : BT.709
    Transfer characteristics    : BT.709
    Matrix coefficients         : BT.709

    Audio #1
    ID                          : 2
    Format                      : AC-3
    Format/Info                 : Audio Coding 3
    Commercial name             : Dolby Digital
    Codec ID                    : A_AC3
    Duration                    : 1 h 47 min
    Bit rate mode               : Constant
    Bit rate                    : 640 kb/s
    Channel(s)                  : 6 channels
    Channel layout              : L R C LFE Ls Rs
    Sampling rate               : 48.0 kHz
    Frame rate                  : 31.250 FPS (1536 SPF)
    Compression mode            : Lossy
    Delay relative to video     : 16 ms
    Stream size                 : 491 MiB (7%)
    Language                    : Spanish
    Service kind                : Complete Main
    Default                     : Yes
    Forced                      : No

    Audio #2
    ID                          : 3
    Format                      : AC-3
    Format/Info                 : Audio Coding 3
    Commercial name             : Dolby Digital
    Codec ID                    : A_AC3
    Duration                    : 1 h 47 min
    Bit rate mode               : Constant
    Bit rate                    : 448 kb/s
    Channel(s)                  : 6 channels
    Channel layout              : L R C LFE Ls Rs
    Sampling rate               : 48.0 kHz
    Frame rate                  : 31.250 FPS (1536 SPF)
    Compression mode            : Lossy
    Stream size                 : 344 MiB (5%)
    Language                    : English
    Service kind                : Complete Main
    Default                     : No
    Forced                      : No

    Text
    ID                          : 4
    Format                      : UTF-8
    Codec ID                    : S_TEXT/UTF8
    Codec ID/Info               : UTF-8 Plain Text
    Duration                    : 1 h 43 min
    Bit rate                    : 39 b/s
    Count of elements           : 974
    Stream size                 : 29.5 KiB (0%)
    Language                    : Spanish
    Default                     : No
    Forced                      : No

    Menu
    00:00:00.000                : Start
    00:02:28.711                : Townstone Fixer-Upper
    00:06:17.431                : The Panic Room
    00:14:46.111                : The Break-in
    00:19:34.191                : "We Got a Problem"
    00:24:43.511                : Intruder Alert
    00:25:47.711                : "People in the House"
    00:30:43.551                : The PA System
    00:40:48.511                : Sending Them a Message
    00:46:08.231                : Return to Sender
    00:49:01.271                : S.O.S.
    00:53:36.151                : Cell Phone Retrieval
    00:57:23.231                : Cutting Into the Main Line
    01:02:17.991                : Dizzy and Hungry
    01:02:56.711                : Giving Up
    01:05:42.111                : 50/50 Split
    01:06:39.711                : Stephen Drops By
    01:09:03.711                : "Open the Door!"
    01:10:23.791                : Sarah Goes Into Shock
    01:11:45.031                : Insulin Run
    01:14:34.431                : Sticky Fingers
    01:16:28.231                : "Give Her the Shot!"
    01:23:12.951                : The Police Arrive
    01:29:23.671                : Blinding the System
    01:34:42.791                : Exactly Where She Wants Them
    01:37:42.591                : "Let My Daughter Go"
    01:38:38.871                : Raoul Gets Hammered
    01:39:48.191                : "You're Gonna Be All Right"

  • Peso: 6.43 GiB

Sinopsis

La recién separada Meg Altman y su hija Sarah se mudan a una lujosa mansión en Nueva York. Pero cuando tres intrusos invaden brutalmente su hogar, las dos se encierran en «la habitación del antipánico», una cámara oculta construida como refugio, con cuatro muros de hormigón, línea de teléfono independiente, un conjunto de monitores que controlan todos los rincones de la casa y una impenetrable puerta de acero.

Ficha técnica

Video trailer de la película

Enlaces de descarga

Rip de Bluray

Descargar Panic Room (2002) WEB-DL 1080p Latino – CMHDD




Aportes de DPeliculasHDmega la pass es:dpeliculashdmega.org Aportes de CinemaniaHD la pass es:cinemaniahdd.com
Guardado en : Crimen , Drama , Suspenso

Películas relacionadas

  • Zola (2020) HD 1080p Latino

    Zola (2020) HD 1080p Latino

    2020
    Zola (2020) HD 1080p Latino

    1h 26m 2020

    Descargar Zola (2020) HD 1080p Latino. Una camarera accede a acompañar a una bailarina exótica, su...

    Director: Sheri Davani

    Género: Comedia

    Actores: Ts Madison

  • Zola (2020) PLACEBO Full HD 1080p Latino

    Zola (2020) PLACEBO Full HD 1080p Latino

    2020
    Zola (2020) PLACEBO Full HD 1080p Latino

    1h 26m 2020

    Descargar Zola (2020) PLACEBO Full HD 1080p Latino. Una camarera accede a acompañar a una bailarina...

    Director: Sheri Davani

    Género: Comedia

    Actores: Ts Madison

  • Zola (2020) REMUX 1080p Latino

    Zola (2020) REMUX 1080p Latino

    2020
    Zola (2020) REMUX 1080p Latino

    1h 26m 2020

    Descargar Zola (2020) REMUX 1080p Latino. Una camarera accede a acompañar a una bailarina exótica,...

    Director: Sheri Davani

    Género: Comedia

    Actores: Ts Madison

descargar Panic Room (2002) WEB-DL 1080p Latino – CMHDD WEBDL 1080p gratis, Panic Room (2002) WEB-DL 1080p Latino – CMHDD WEBDL mega 1 link, Panic Room (2002) WEB-DL 1080p Latino – CMHDD WEBDL pelicula completa, descargar Panic Room (2002) WEB-DL 1080p Latino – CMHDD WEBDL gratis en mega.

Panic Room (2002) WEB-DL 1080p Latino – CMHDD pelicula full hd, Panic Room (2002) WEB-DL 1080p Latino – CMHDD mega latino, Panic Room (2002) WEB-DL 1080p Latino – CMHDD 4k latino, Panic Room (2002) WEB-DL 1080p Latino – CMHDD pelicula completa, Panic Room (2002) WEB-DL 1080p Latino – CMHDD descargar gratis, descargar Panic Room (2002) WEB-DL 1080p Latino – CMHDD pelicula latino, Panic Room (2002) WEB-DL 1080p Latino – CMHDD 1 link mega, Panic Room (2002) WEB-DL 1080p Latino – CMHDD 1 link google drive, Panic Room (2002) WEB-DL 1080p Latino – CMHDD hd 1080p latino.
Comentarios 0