Panic Room (2002) [OPEN MATTE] HDTV 1080i Latino – CMHDD

132 vistas
1 estrella2 estrellas3 estrellas4 estrellas5 estrellas (1 votos, promedio: 5,00 de 5)
Cargando...

Información de Panic Room (2002) [OPEN MATTE] HDTV 1080i Latino – CMHDD

Datos de la película

  • Calidad: WEBDL
  • Audio: Español Latino AC3 5.1 WEB-DL - Ingles AC3 5.1 WEB-DL
  • Subtitulos: Español Latino SRT
  • Resolución: 1920x1080p
  • Formato: MKV
  • Codec: H.264
  • Encoder: Dracarys
  • Mediainfo: Clic para Mostrar Datos Ver
  • Format                      : Matroska
    Format version              : Version 4
    File size                   : 7.27 GiB
    Duration                    : 1 h 47 min
    Overall bit rate mode       : Variable
    Overall bit rate            : 9 705 kb/s
    Movie name                  : Panic Room (2002) [OPEN MATTE] HDTV 1080i Latino - CMHDD
    Encoded date                : UTC 2021-07-22 20:11:46
    Writing application         : mkvmerge v56.1.0 ('My Friend') 64-bit
    Writing library             : libebml v1.4.2 + libmatroska v1.6.4

    Video
    ID                          : 1
    Format                      : AVC
    Format/Info                 : Advanced Video Codec
    Format profile              : High@L4
    Format settings             : CABAC / 2 Ref Frames
    Format settings, CABAC      : Yes
    Format settings, Reference  : 2 frames
    Codec ID                    : V_MPEG4/ISO/AVC
    Duration                    : 1 h 44 min
    Bit rate mode               : Variable
    Bit rate                    : 8 872 kb/s
    Maximum bit rate            : 40.0 Mb/s
    Width                       : 1 920 pixels
    Height                      : 1 080 pixels
    Display aspect ratio        : 16:9
    Frame rate mode             : Constant
    Frame rate                  : 25.000 FPS
    Standard                    : Component
    Color space                 : YUV
    Chroma subsampling          : 4:2:0
    Bit depth                   : 8 bits
    Scan type                   : MBAFF
    Bits/(Pixel*Frame)          : 0.171
    Stream size                 : 6.46 GiB (89%)
    Language                    : English
    Default                     : Yes
    Forced                      : Yes
    Color range                 : Limited
    Color primaries             : BT.709
    Transfer characteristics    : BT.709
    Matrix coefficients         : BT.709

    Audio #1
    ID                          : 2
    Format                      : AC-3
    Format/Info                 : Audio Coding 3
    Commercial name             : Dolby Digital
    Codec ID                    : A_AC3
    Duration                    : 1 h 47 min
    Bit rate mode               : Constant
    Bit rate                    : 640 kb/s
    Channel(s)                  : 6 channels
    Channel layout              : L R C LFE Ls Rs
    Sampling rate               : 48.0 kHz
    Frame rate                  : 31.250 FPS (1536 SPF)
    Compression mode            : Lossy
    Stream size                 : 491 MiB (7%)
    Language                    : Spanish
    Service kind                : Complete Main
    Default                     : Yes
    Forced                      : No

    Audio #2
    ID                          : 3
    Format                      : AC-3
    Format/Info                 : Audio Coding 3
    Commercial name             : Dolby Digital
    Codec ID                    : A_AC3
    Duration                    : 1 h 47 min
    Bit rate mode               : Constant
    Bit rate                    : 448 kb/s
    Channel(s)                  : 6 channels
    Channel layout              : L R C LFE Ls Rs
    Sampling rate               : 48.0 kHz
    Frame rate                  : 31.250 FPS (1536 SPF)
    Compression mode            : Lossy
    Stream size                 : 344 MiB (5%)
    Language                    : English
    Service kind                : Complete Main
    Default                     : No
    Forced                      : No

    Text
    ID                          : 4
    Format                      : UTF-8
    Codec ID                    : S_TEXT/UTF8
    Codec ID/Info               : UTF-8 Plain Text
    Duration                    : 1 h 43 min
    Bit rate                    : 39 b/s
    Count of elements           : 974
    Stream size                 : 29.5 KiB (0%)
    Language                    : Spanish
    Default                     : No
    Forced                      : No

    Menu
    00:00:00.000                : de:Chapter 1
    00:01:50.679                : de:Chapter 2
    00:05:39.399                : de:Chapter 3
    00:14:08.079                : de:Chapter 4
    00:18:56.159                : de:Chapter 5
    00:24:05.479                : de:Chapter 6
    00:25:09.679                : de:Chapter 7
    00:30:05.519                : de:Chapter 8
    00:40:10.479                : de:Chapter 9
    00:45:30.199                : de:Chapter 10
    00:48:23.239                : de:Chapter 11
    00:52:58.119                : de:Chapter 12
    00:56:45.199                : de:Chapter 13
    01:01:39.959                : de:Chapter 14
    01:02:18.679                : de:Chapter 15
    01:05:04.079                : de:Chapter 16
    01:06:01.679                : de:Chapter 17
    01:08:25.679                : de:Chapter 18
    01:09:45.759                : de:Chapter 19
    01:11:06.999                : de:Chapter 20
    01:13:56.399                : de:Chapter 21
    01:15:50.199                : de:Chapter 22
    01:22:34.919                : de:Chapter 23
    01:28:45.639                : de:Chapter 24
    01:34:04.759                : de:Chapter 25
    01:37:04.559                : de:Chapter 26
    01:38:00.839                : de:Chapter 27
    01:39:10.159                : de:Chapter 28

  • Peso: 7.27 GiB

Sinopsis

La recién separada Meg Altman y su hija Sarah se mudan a una lujosa mansión en Nueva York. Pero cuando tres intrusos invaden brutalmente su hogar, las dos se encierran en «la habitación del antipánico», una cámara oculta construida como refugio, con cuatro muros de hormigón, línea de teléfono independiente, un conjunto de monitores que controlan todos los rincones de la casa y una impenetrable puerta de acero.

Ficha técnica

Video trailer de la película

Enlaces de descarga

Rip de Bluray

Descargar Panic Room (2002) [OPEN MATTE] HDTV 1080i Latino – CMHDD




Aportes de DPeliculasHDmega la pass es:dpeliculashdmega.org Aportes de CinemaniaHD la pass es:cinemaniahdd.com
Guardado en : Crimen , Drama , Suspenso

Películas relacionadas

Panic Room (2002) [OPEN MATTE] HDTV 1080i Latino – CMHDD pelicula full hd, Panic Room (2002) [OPEN MATTE] HDTV 1080i Latino – CMHDD mega latino, Panic Room (2002) [OPEN MATTE] HDTV 1080i Latino – CMHDD 4k latino, Panic Room (2002) [OPEN MATTE] HDTV 1080i Latino – CMHDD pelicula completa, Panic Room (2002) [OPEN MATTE] HDTV 1080i Latino – CMHDD descargar gratis, descargar Panic Room (2002) [OPEN MATTE] HDTV 1080i Latino – CMHDD pelicula latino, Panic Room (2002) [OPEN MATTE] HDTV 1080i Latino – CMHDD 1 link mega, Panic Room (2002) [OPEN MATTE] HDTV 1080i Latino – CMHDD 1 link google drive, Panic Room (2002) [OPEN MATTE] HDTV 1080i Latino – CMHDD hd 1080p latino.
Comentarios 5
  • Mario - 23 julio, 2021

    ¿Es un aporte exclusivo? ¿O un error? Ya que el paste público te lleva a un paste privado.

    • Dracarys - 23 julio, 2021

      Reparado

  • LEONNIDAS4 - 23 julio, 2021

    Admi, entre a los acortadores PUBLICO y al final me manda a una zona VIP donde me pide usuario y contraseña de cuenta VIP… entonces el aporte solo seria para los usuarios vip o hay algun pequeño error.. gracias de antemano

    • Dracarys - 23 julio, 2021

      Reparado

      • LEONNIDAS4 - 25 julio, 2021

        Muchas gracias.. mas que excelente

        Se puede decir de donde salio a fuente del video… osea de que pagina.. la busque en las paginas que suelo ver y nada, ni en la cada vez mas conocida pagina rusa

        Gracias de antemano