×

¿Problemas para descargar con Mozilla, EDGE? Deshabilita la opción "Abrir vinculos en una pestaña nueva" tal como lo muestra ésta imagen.

Panic (2021) Primera Temporada AMZN WEB-DL 1080p Latino

223 vistas

Información de Panic (2021) Primera Temporada AMZN WEB-DL 1080p Latino

Datos de la película

  • Calidad: WEBDL
  • Audio: Español Latino E-AC3 5.1 AMAZON - Ingles E-AC3 5.1 AMAZON
  • Subtitulos: Español Latino SRT- FORZADOS SRT
  • Resolución: 1920x1080
  • Formato: MKV
  • Codec: H.264
  • Encoder: cinemaniahdd
  • Mediainfo: Clic para Mostrar Datos Ver
  • Panic T01E10 AMZN WEB-DL 1080p Latino [CNMNHDD].mkv
    Format                      : Matroska
    Format version              : Version 4
    File size                   : 3.01 GiB
    Duration                    : 43 min 47 s
    Overall bit rate            : 9 849 kb/s
    Movie name                  : Panic T01E10 - CinemaniaHDD.Net
    Encoded date                : UTC 2021-05-28 02:38:27
    Writing application         : mkvmerge v56.1.0 ('My Friend') 64-bit
    Writing library             : libebml v1.4.2 + libmatroska v1.6.4

    Video
    ID                          : 1
    Format                      : AVC
    Format/Info                 : Advanced Video Codec
    Format profile              : High@L4
    Format settings             : CABAC / 4 Ref Frames
    Format settings, CABAC      : Yes
    Format settings, Reference  : 4 frames
    Codec ID                    : V_MPEG4/ISO/AVC
    Duration                    : 43 min 47 s
    Bit rate mode               : Constant
    Bit rate                    : 7 926 kb/s
    Nominal bit rate            : 10 000 kb/s
    Width                       : 1 920 pixels
    Height                      : 1 080 pixels
    Display aspect ratio        : 16:9
    Frame rate mode             : Constant
    Frame rate                  : 23.976 (24000/1001) FPS
    Color space                 : YUV
    Chroma subsampling          : 4:2:0
    Bit depth                   : 8 bits
    Scan type                   : Progressive
    Bits/(Pixel*Frame)          : 0.159
    Stream size                 : 2.42 GiB (80%)
    Title                       : CinemaniaHDD
    Default                     : Yes
    Forced                      : No
    Color range                 : Limited
    Color primaries             : BT.709
    Transfer characteristics    : BT.709
    Matrix coefficients         : BT.709

    Audio #1
    ID                          : 2
    Format                      : AC-3
    Format/Info                 : Audio Coding 3
    Commercial name             : Dolby Digital
    Codec ID                    : A_AC3
    Duration                    : 43 min 47 s
    Bit rate mode               : Constant
    Bit rate                    : 640 kb/s
    Channel(s)                  : 6 channels
    Channel layout              : L R C LFE Ls Rs
    Sampling rate               : 48.0 kHz
    Frame rate                  : 31.250 FPS (1536 SPF)
    Compression mode            : Lossy
    Stream size                 : 200 MiB (6%)
    Title                       : Español latino - AC3 [CinemaniaHDD]
    Language                    : Spanish
    Service kind                : Complete Main
    Default                     : Yes
    Forced                      : No

    Audio #2
    ID                          : 3
    Format                      : E-AC-3
    Format/Info                 : Enhanced AC-3
    Commercial name             : Dolby Digital Plus
    Codec ID                    : A_EAC3
    Duration                    : 43 min 47 s
    Bit rate mode               : Constant
    Bit rate                    : 640 kb/s
    Channel(s)                  : 6 channels
    Channel layout              : L R C LFE Ls Rs
    Sampling rate               : 48.0 kHz
    Frame rate                  : 31.250 FPS (1536 SPF)
    Compression mode            : Lossy
    Stream size                 : 200 MiB (6%)
    Title                       : Español latino - E-AC3 [CinemaniaHDD]
    Language                    : Spanish
    Service kind                : Complete Main
    Default                     : No
    Forced                      : No

    Audio #3
    ID                          : 4
    Format                      : E-AC-3
    Format/Info                 : Enhanced AC-3
    Commercial name             : Dolby Digital Plus
    Codec ID                    : A_EAC3
    Duration                    : 43 min 47 s
    Bit rate mode               : Constant
    Bit rate                    : 640 kb/s
    Channel(s)                  : 6 channels
    Channel layout              : L R C LFE Ls Rs
    Sampling rate               : 48.0 kHz
    Frame rate                  : 31.250 FPS (1536 SPF)
    Compression mode            : Lossy
    Stream size                 : 200 MiB (6%)
    Title                       : Inglés - E-AC3 [CinemaniaHDD]
    Language                    : English
    Service kind                : Complete Main
    Default                     : No
    Forced                      : No

    Text #1
    ID                          : 5
    Format                      : UTF-8
    Codec ID                    : S_TEXT/UTF8
    Codec ID/Info               : UTF-8 Plain Text
    Duration                    : 37 min 45 s
    Bit rate                    : 2 b/s
    Count of elements           : 19
    Stream size                 : 573 Bytes (0%)
    Title                       : Forzados [CinemaniaHDD]
    Language                    : Spanish
    Default                     : Yes
    Forced                      : Yes

    Text #2
    ID                          : 6
    Format                      : UTF-8
    Codec ID                    : S_TEXT/UTF8
    Codec ID/Info               : UTF-8 Plain Text
    Duration                    : 43 min 2 s
    Bit rate                    : 55 b/s
    Count of elements           : 527
    Stream size                 : 17.5 KiB (0%)
    Title                       : Español latino [CinemaniaHDD]
    Language                    : Spanish
    Default                     : No
    Forced                      : No

    Text #3
    ID                          : 7
    Format                      : UTF-8
    Codec ID                    : S_TEXT/UTF8
    Codec ID/Info               : UTF-8 Plain Text
    Duration                    : 41 min 16 s
    Bit rate                    : 63 b/s
    Count of elements           : 644
    Stream size                 : 19.2 KiB (0%)
    Title                       : Inglés [CC] [CinemaniaHDD]
    Language                    : English
    Default                     : No
    Forced                      : No

    Menu
    00:00:00.000                : Amazon Original
    00:00:05.000                : Disclaimer
    00:00:20.000                : Scene 3
    00:01:09.000                : Title Sequence
    00:01:14.000                : Scene 5
    00:03:21.000                : Scene 6
    00:08:58.000                : Scene 7
    00:12:39.000                : Scene 8
    00:17:27.000                : Scene 9
    00:24:33.000                : Scene 10
    00:29:21.000                : Scene 11
    00:32:17.000                : Scene 12
    00:38:16.000                : Scene 13
    00:41:47.000                : End Credits

     

  • Peso: 3.01 GiB GiB Aprox ---- 29.8 GiB in 10 Chapters.

Sinopsis

En el olvidado pueblo de Carp, Texas, Pánico es la única salida. Cada verano los graduados del último año arriesgan sus vidas compitiendo en varios desafíos por ganar una suma de dinero que les cambiará la vida. Luego de la muerte de dos jugadores las apuestas, y el peligro, están en lo más alto. Este verano serán veintitrés jugadores. Todos ellos cambiarán. Sólo uno ganará. Que inicie el juego.

Ficha técnica

Video trailer de la película

Enlaces de descarga

Rip de Bluray

Descargar Panic (2021) Primera Temporada AMZN WEB-DL 1080p Latino




Aportes de DPeliculasHDmega la pass es:dpeliculashdmega.org Aportes de CinemaniaHD la pass es:cinemaniahdd.com
Guardado en : Drama , Series

Películas relacionadas

  • El discurso del Rey (2010) 1080p Latino

    El discurso del Rey (2010) 1080p Latino

    2010
    El discurso del Rey (2010) 1080p Latino

    1h 58m 2010

    Descargar El discurso del Rey (2010) 1080p Latino. El duque de York se convirtió en rey de Gran Bretaña...

    Director: Tom Hooper

    Género: Drama

    Actores: Tony Earnshaw

  • El discurso del Rey (2010) Full HD 1080p Latino

    El discurso del Rey (2010) Full HD 1080p Latino

    2010
    El discurso del Rey (2010) Full HD 1080p Latino

    1h 58m 2010

    Descargar El discurso del Rey (2010) Full HD 1080p Latino. El duque de York se convirtió en rey de Gran...

    Director: Tom Hooper

    Género: Drama

    Actores: Tony Earnshaw

  • El discurso del Rey (2010) REMUX 1080p Latino

    El discurso del Rey (2010) REMUX 1080p Latino

    2010
    El discurso del Rey (2010) REMUX 1080p Latino

    1h 58m 2010

    Descargar El discurso del Rey (2010) REMUX 1080p Latino. El duque de York se convirtió en rey de Gran...

    Director: Tom Hooper

    Género: Drama

    Actores: Tony Earnshaw

  • 8 Mile (2002) REMUX 4K HDR Latino – CMHDD

    8 Mile (2002) REMUX 4K HDR Latino – CMHDD

    2002
    8 Mile (2002) REMUX 4K HDR Latino – CMHDD

    1h 50m 2002

    Detroit, 1995. La promesa de potencia industrial se ha transformado en un hervidero de conflictos económicos...

    Director: Michael J. Moore

    Género: Drama

    Actores: Xzibit

descargar Panic (2021) Primera Temporada AMZN WEB-DL 1080p Latino WEBDL 1080p gratis, Panic (2021) Primera Temporada AMZN WEB-DL 1080p Latino WEBDL mega 1 link, Panic (2021) Primera Temporada AMZN WEB-DL 1080p Latino WEBDL serie completa, descargar Panic (2021) Primera Temporada AMZN WEB-DL 1080p Latino WEBDL gratis en mega.

Panic (2021) Primera Temporada AMZN WEB-DL 1080p Latino pelicula full hd, Panic (2021) Primera Temporada AMZN WEB-DL 1080p Latino mega latino, Panic (2021) Primera Temporada AMZN WEB-DL 1080p Latino 4k latino, Panic (2021) Primera Temporada AMZN WEB-DL 1080p Latino pelicula completa, Panic (2021) Primera Temporada AMZN WEB-DL 1080p Latino descargar gratis, descargar Panic (2021) Primera Temporada AMZN WEB-DL 1080p Latino pelicula latino, Panic (2021) Primera Temporada AMZN WEB-DL 1080p Latino 1 link mega, Panic (2021) Primera Temporada AMZN WEB-DL 1080p Latino 1 link google drive, Panic (2021) Primera Temporada AMZN WEB-DL 1080p Latino hd 1080p latino.
Comentarios 0