×

¿Problemas para descargar con Mozilla, EDGE? Deshabilita la opción "Abrir vinculos en una pestaña nueva" tal como lo muestra ésta imagen.

Palm Springs (2020) PLACEBO Full HD 1080p Latino

356 vistas

Información de Palm Springs (2020) PLACEBO Full HD 1080p Latino

Datos de la película

  • Calidad: Full 1080p
  • Audio: Español Latino AC3 2.0 WEB-DL - Ingles DTS 5.1 BLURAY
  • Subtitulos: Español Latino SRT- FORZADOS SRT
  • Resolución: 1920x1080p
  • Formato: MKV
  • Codec: H.264
  • Encoder: Melkor
  • Mediainfo: Clic para Mostrar Datos Ver
  • Palm Springs (2020) PLACEBO 1080p Latino.mkv
    Format                      : Matroska
    Format version              : Version 4
    File size                   : 4.31 GiB
    Duration                    : 1 h 29 min
    Overall bit rate mode       : Variable
    Overall bit rate            : 6 849 kb/s
    Movie name                  : Palm Springs (2020) CinemaniaHDD.Net
    Encoded date                : UTC 2022-06-05 06:09:31
    Writing application         : mkvmerge v56.1.0 ('My Friend') 64-bit
    Writing library             : libebml v1.4.2 + libmatroska v1.6.4

    Video
    ID                          : 1
    Format                      : AVC
    Format/Info                 : Advanced Video Codec
    Format profile              : High@L4.1
    Format settings             : CABAC / 4 Ref Frames
    Format settings, CABAC      : Yes
    Format settings, Reference  : 4 frames
    Codec ID                    : V_MPEG4/ISO/AVC
    Duration                    : 1 h 29 min
    Bit rate                    : 4 845 kb/s
    Width                       : 1 920 pixels
    Height                      : 1 080 pixels
    Display aspect ratio        : 16:9
    Frame rate mode             : Constant
    Frame rate                  : 24.000 FPS
    Color space                 : YUV
    Chroma subsampling          : 4:2:0
    Bit depth                   : 8 bits
    Scan type                   : Progressive
    Bits/(Pixel*Frame)          : 0.097
    Stream size                 : 3.05 GiB (71%)
    Title                       : Full HD1080p [CinemaniaHDD]
    Writing library             : x264 core 163 r3059 b684ebe0
    Encoding settings           : cabac=1 / ref=4 / deblock=1:0:0 / analyse=0x3:0x133 / me=tesa / subme=11 / psy=1 / psy_rd=1.00:0.00 / mixed_ref=1 / me_range=24 / chroma_me=1 / trellis=2 / 8x8dct=1 / cqm=0 / deadzone=21,11 / fast_pskip=0 / chroma_qp_offset=-2 / threads=24 / lookahead_threads=6 / sliced_threads=0 / nr=0 / decimate=1 / interlaced=0 / bluray_compat=0 / constrained_intra=0 / bframes=16 / b_pyramid=2 / b_adapt=2 / b_bias=0 / direct=3 / weightb=1 / open_gop=0 / weightp=2 / keyint=240 / keyint_min=24 / scenecut=40 / intra_refresh=0 / rc_lookahead=60 / rc=crf / mbtree=1 / crf=19.0 / qcomp=0.60 / qpmin=0 / qpmax=69 / qpstep=4 / vbv_maxrate=62500 / vbv_bufsize=78125 / crf_max=0.0 / nal_hrd=none / filler=0 / ip_ratio=1.40 / aq=1:1.00
    Default                     : Yes
    Forced                      : Yes
    Color range                 : Limited
    Color primaries             : BT.709
    Transfer characteristics    : BT.709
    Matrix coefficients         : BT.709

    Audio #1
    ID                          : 2
    Format                      : AC-3
    Format/Info                 : Audio Coding 3
    Commercial name             : Dolby Digital
    Codec ID                    : A_AC3
    Duration                    : 1 h 29 min
    Bit rate mode               : Constant
    Bit rate                    : 256 kb/s
    Channel(s)                  : 2 channels
    Channel layout              : L R
    Sampling rate               : 48.0 kHz
    Frame rate                  : 31.250 FPS (1536 SPF)
    Compression mode            : Lossy
    Stream size                 : 165 MiB (4%)
    Title                       : Español Latino [CinemaniaHDD]
    Language                    : Spanish
    Service kind                : Complete Main
    Default                     : Yes
    Forced                      : Yes

    Audio #2
    ID                          : 3
    Format                      : DTS XLL
    Format/Info                 : Digital Theater Systems
    Commercial name             : DTS-HD Master Audio
    Codec ID                    : A_DTS
    Duration                    : 1 h 29 min
    Bit rate mode               : Variable
    Bit rate                    : 1 744 kb/s
    Channel(s)                  : 6 channels
    Channel layout              : C L R Ls Rs LFE
    Sampling rate               : 48.0 kHz
    Frame rate                  : 93.750 FPS (512 SPF)
    Bit depth                   : 16 bits
    Compression mode            : Lossless
    Stream size                 : 1.10 GiB (25%)
    Title                       : Ingles [CinemaniaHDD]
    Language                    : English
    Default                     : No
    Forced                      : No

    Text #1
    ID                          : 4
    Format                      : UTF-8
    Codec ID                    : S_TEXT/UTF8
    Codec ID/Info               : UTF-8 Plain Text
    Duration                    : 1 h 3 min
    Bit rate                    : 0 b/s
    Count of elements           : 13
    Stream size                 : 424 Bytes (0%)
    Title                       : Forzados-SRT [CinemaniaHDD]
    Language                    : Spanish
    Default                     : Yes
    Forced                      : Yes

    Text #2
    ID                          : 5
    Format                      : UTF-8
    Codec ID                    : S_TEXT/UTF8
    Codec ID/Info               : UTF-8 Plain Text
    Duration                    : 1 h 23 min
    Bit rate                    : 67 b/s
    Count of elements           : 1476
    Stream size                 : 41.3 KiB (0%)
    Title                       : Español-SRT [CinemaniaHDD]
    Language                    : Spanish
    Default                     : No
    Forced                      : No

    Text #3
    ID                          : 6
    Format                      : UTF-8
    Codec ID                    : S_TEXT/UTF8
    Codec ID/Info               : UTF-8 Plain Text
    Duration                    : 1 h 29 min
    Bit rate                    : 67 b/s
    Count of elements           : 1559
    Stream size                 : 44.4 KiB (0%)
    Title                       : Ingles [CinemaniaHDD]
    Language                    : English
    Default                     : No
    Forced                      : No

    Menu
    00:00:00.000                : Chapter 01
    00:09:48.000                : Chapter 02
    00:19:12.500                : Chapter 03
    00:28:15.000                : Chapter 04
    00:41:01.000                : Chapter 05
    00:47:37.000                : Chapter 06
    00:59:52.500                : Chapter 07
    01:12:17.500                : Chapter 08
    01:23:39.500                : Chapter 09

  • Peso: 4.31 GìB

Sinopsis

Descargar Palm Springs (2020) PLACEBO Full HD 1080p Latino. Cuando el desenfadado Nyles y su reticente dama de honor Sarah tienen la oportunidad de encontrarse en una boda de Palm Springs, las cosas se complican al verse incapaces de escapar del lugar y el uno del otro

Ficha técnica

Video trailer de la película

Enlaces de descarga

Rip de Bluray

Descargar Palm Springs (2020) PLACEBO Full HD 1080p Latino




Aportes de DPeliculasHDmega la pass es:dpeliculashdmega.org Aportes de CinemaniaHD la pass es:cinemaniahdd.com

Películas relacionadas

  • Ad Astra (2019) REMUX 4K HDR Latino – CMHDD

    Ad Astra (2019) REMUX 4K HDR Latino – CMHDD

    2019
    Ad Astra (2019) REMUX 4K HDR Latino – CMHDD

    2h 3m 2019

    El futuro cercano, un tiempo en el que tanto la esperanza como la adversidad impulsan a la humanidad...

    Director: Sharron Reynolds-Enriquez

    Género: Ciencia ficción

    Actores: Zoro Saro Manuel Daghlian

  • La Guerra Del Futuro (2022) NF WEB-DL 1080p Latino

    La Guerra Del Futuro (2022) NF WEB-DL 1080p Latino

    2022
    La Guerra Del Futuro (2022) NF WEB-DL 1080p Latino

    1h 41m 2022

    Descargar La Guerra Del Futuro (2022) NF WEB-DL 1080p Latino. Tras la caída de un meteorito que alberga...

    Director: Ng Yuen-fai

    Género: Acción

    Actores: Tse Kwan-Ho

  • Super… ¿quién? (2021) HD 1080p Latino

    Super… ¿quién? (2021) HD 1080p Latino

    2022
    Super… ¿quién? (2021) HD 1080p Latino

    1h 22m 2022

    Descargar Super... ¿quién? (2021) HD 1080p Latino. Cedric (Philippe Lacheau) intenta ganarse la vida...

    Director: Philippe Lacheau

    Género: Acción

    Actores: Yves Yan

descargar Palm Springs (2020) PLACEBO Full HD 1080p Latino Full 1080p 1080p gratis, Palm Springs (2020) PLACEBO Full HD 1080p Latino Full 1080p mega 1 link, Palm Springs (2020) PLACEBO Full HD 1080p Latino Full 1080p pelicula completa, descargar Palm Springs (2020) PLACEBO Full HD 1080p Latino Full 1080p gratis en mega.

Palm Springs (2020) PLACEBO Full HD 1080p Latino pelicula full hd, Palm Springs (2020) PLACEBO Full HD 1080p Latino mega latino, Palm Springs (2020) PLACEBO Full HD 1080p Latino 4k latino, Palm Springs (2020) PLACEBO Full HD 1080p Latino pelicula completa, Palm Springs (2020) PLACEBO Full HD 1080p Latino descargar gratis, descargar Palm Springs (2020) PLACEBO Full HD 1080p Latino pelicula latino, Palm Springs (2020) PLACEBO Full HD 1080p Latino 1 link mega, Palm Springs (2020) PLACEBO Full HD 1080p Latino 1 link google drive, Palm Springs (2020) PLACEBO Full HD 1080p Latino hd 1080p latino.
Comentarios 0