×

¿Problemas para descargar con Mozilla, EDGE? Deshabilita la opción "Abrir vinculos en una pestaña nueva" tal como lo muestra ésta imagen.

Pacto de silencio (2023) Temporada 1 NF WEB-DL 1080p Latino

166 vistas

Información de Pacto de silencio (2023) Temporada 1 NF WEB-DL 1080p Latino

Datos de la película

  • Calidad: WEBDL
  • Audio: Español Latino AC3 5.1 Netflix
  • Subtitulos: Español Latino SRT - Ingles SRT
  • Resolución: 1920x1080p
  • Formato: MKV
  • Codec: H.264
  • Encoder: Melkor
  • Mediainfo: Clic para Mostrar Datos Ver
  • Pact of Silence S01E01 (2023) NF WebDL 1080p Latino.mkv
    Format                      : Matroska
    Format version              : Version 4
    File size                   : 2.25 GiB
    Duration                    : 41 min 46 s
    Overall bit rate mode       : Variable
    Overall bit rate            : 7 700 kb/s
    Movie name                  : Pact of Silence S01E01 CinemaniaHDD.Net
    Encoded date                : UTC 2023-10-14 18:01:34
    Writing application         : mkvmerge v59.0.0 ('Shining Star') 64-bit
    Writing library             : libebml v1.4.2 + libmatroska v1.6.4
    Attachments                 : CINEMANIAHD.png
    Site                        : CinemaniaHDD.Net
    Uploader                    : Melkor

    Video
    ID                          : 1
    Format                      : AVC
    Format/Info                 : Advanced Video Codec
    Format profile              : High@L4
    Format settings             : CABAC / 4 Ref Frames
    Format settings, CABAC      : Yes
    Format settings, Reference  : 4 frames
    Codec ID                    : V_MPEG4/ISO/AVC
    Duration                    : 41 min 46 s
    Bit rate mode               : Variable
    Bit rate                    : 6 946 kb/s
    Maximum bit rate            : 20.0 Mb/s
    Width                       : 1 920 pixels
    Height                      : 1 080 pixels
    Display aspect ratio        : 16:9
    Frame rate mode             : Constant
    Frame rate                  : 23.976 (24000/1001) FPS
    Color space                 : YUV
    Chroma subsampling          : 4:2:0
    Bit depth                   : 8 bits
    Scan type                   : Progressive
    Bits/(Pixel*Frame)          : 0.140
    Stream size                 : 2.03 GiB (90%)
    Title                       : WEB HD1080p [CinemaniaHDD]
    Writing library             : x264 core 148 r2727 7d026e8
    Encoding settings           : cabac=1 / ref=4 / deblock=1:0:0 / analyse=0x3:0x111 / me=umh / subme=10 / psy=1 / psy_rd=1.00:0.00 / mixed_ref=1 / me_range=120 / chroma_me=1 / trellis=2 / 8x8dct=1 / cqm=0 / deadzone=21,11 / fast_pskip=1 / chroma_qp_offset=-2 / threads=6 / lookahead_threads=1 / sliced_threads=0 / nr=0 / decimate=1 / interlaced=0 / bluray_compat=0 / stitchable=1 / constrained_intra=0 / bframes=16 / b_pyramid=2 / b_adapt=2 / b_bias=0 / direct=3 / weightb=1 / open_gop=0 / weightp=2 / keyint=240 / keyint_min=121 / scenecut=0 / intra_refresh=0 / rc_lookahead=240 / rc=crf / mbtree=1 / crf=31.0 / qcomp=0.50 / qpmin=6 / qpmax=51 / qpstep=4 / vbv_maxrate=20000 / vbv_bufsize=25000 / crf_max=0.0 / nal_hrd=vbr / filler=0 / ip_ratio=1.40 / aq=1:0.80
    Default                     : Yes
    Forced                      : No

    Audio
    ID                          : 2
    Format                      : E-AC-3 JOC
    Format/Info                 : Enhanced AC-3 with Joint Object Coding
    Commercial name             : Dolby Digital Plus with Dolby Atmos
    Codec ID                    : A_EAC3
    Duration                    : 40 min 54 s
    Bit rate mode               : Constant
    Bit rate                    : 768 kb/s
    Channel(s)                  : 6 channels
    Channel layout              : L R C LFE Ls Rs
    Sampling rate               : 48.0 kHz
    Frame rate                  : 31.250 FPS (1536 SPF)
    Compression mode            : Lossy
    Stream size                 : 225 MiB (10%)
    Title                       : Español Latino [CinemaniaHDD]
    Language                    : Spanish
    Service kind                : Complete Main
    Default                     : Yes
    Forced                      : No
    Complexity index            : 16
    Number of dynamic objects   : 15
    Bed channel count           : 1 channel
    Bed channel configuration   : LFE

    Text #1
    ID                          : 3
    Format                      : UTF-8
    Codec ID                    : S_TEXT/UTF8
    Codec ID/Info               : UTF-8 Plain Text
    Duration                    : 40 min 36 s
    Bit rate                    : 71 b/s
    Count of elements           : 620
    Stream size                 : 21.4 KiB (0%)
    Title                       : Español-SRT [CinemaniaHDD]
    Language                    : Spanish
    Default                     : No
    Forced                      : No

    Text #2
    ID                          : 4
    Format                      : UTF-8
    Codec ID                    : S_TEXT/UTF8
    Codec ID/Info               : UTF-8 Plain Text
    Duration                    : 40 min 36 s
    Bit rate                    : 74 b/s
    Count of elements           : 684
    Stream size                 : 22.3 KiB (0%)
    Title                       : Ingles-SRT [CinemaniaHDD]
    Language                    : English
    Default                     : No
    Forced                      : No

  • Peso: 2.3 GiB Aprox C/U -- 37.2 GiB -- 18 Chapters

Sinopsis

Descargar Pacto de silencio (2023) Temporada 1 NF WEB-DL 1080p Latino. Una famosa influencer se mete de lleno en las vidas de cuatro mujeres para descubrir la verdad sobre sus orígenes… y cobrarse su venganza.

Ficha técnica

Video trailer de la película

Enlaces de descarga

Rip de Bluray

Descargar Pacto de silencio (2023) Temporada 1 NF WEB-DL 1080p Latino




Aportes de DPeliculasHDmega la pass es:dpeliculashdmega.org Aportes de CinemaniaHD la pass es:cinemaniahdd.com Aportes recientes:cinemaniahdd.net
Guardado en : Drama , Misterio , Netflix , Series

Películas relacionadas

  • iZombie (2016) Temporada 02 Full HD 1080p Latino

    iZombie (2016) Temporada 02 Full HD 1080p Latino

    2015
    iZombie (2016) Temporada 02 Full HD 1080p Latino

    0h 42m 2015

    Descargar iZombie (2016) Temporada 02 Full HD 1080p Latino. Gira en torno a una estudiante de medicina...

    Director: Rob Thomas

    Género: Crimen

    Actores: Rose McIver

  • iZombie (2016) Temporada 02 REMUX 1080p Latino

    iZombie (2016) Temporada 02 REMUX 1080p Latino

    2015
    iZombie (2016) Temporada 02 REMUX 1080p Latino

    0h 42m 2015

    Descargar iZombie (2016) Temporada 02 REMUX 1080p Latino. Gira en torno a una estudiante de medicina...

    Director: Rob Thomas

    Género: Crimen

    Actores: Rose McIver

  • iZombie (2015) Temporada 01 Full HD 1080p Latino

    iZombie (2015) Temporada 01 Full HD 1080p Latino

    2015
    iZombie (2015) Temporada 01 Full HD 1080p Latino

    0h 42m 2015

    Descargar iZombie (2015) Temporada 01 Full HD 1080p Latino. Gira en torno a una estudiante de medicina...

    Director: Rob Thomas

    Género: Crimen

    Actores: Rose McIver

  • iZombie (2015) Temporada 01 REMUX 1080p Latino

    iZombie (2015) Temporada 01 REMUX 1080p Latino

    2015
    iZombie (2015) Temporada 01 REMUX 1080p Latino

    0h 42m 2015

    Descargar iZombie (2015) Temporada 01 REMUX 1080p Latino. Gira en torno a una estudiante de medicina...

    Director: Rob Thomas

    Género: Crimen

    Actores: Rose McIver

descargar Pacto de silencio (2023) Temporada 1 NF WEB-DL 1080p Latino WEBDL 1080p gratis, Pacto de silencio (2023) Temporada 1 NF WEB-DL 1080p Latino WEBDL mega 1 link, Pacto de silencio (2023) Temporada 1 NF WEB-DL 1080p Latino WEBDL serie completa, descargar Pacto de silencio (2023) Temporada 1 NF WEB-DL 1080p Latino WEBDL gratis en mega.

Pacto de silencio (2023) Temporada 1 NF WEB-DL 1080p Latino pelicula full hd, Pacto de silencio (2023) Temporada 1 NF WEB-DL 1080p Latino mega latino, Pacto de silencio (2023) Temporada 1 NF WEB-DL 1080p Latino 4k latino, Pacto de silencio (2023) Temporada 1 NF WEB-DL 1080p Latino pelicula completa, Pacto de silencio (2023) Temporada 1 NF WEB-DL 1080p Latino descargar gratis, descargar Pacto de silencio (2023) Temporada 1 NF WEB-DL 1080p Latino pelicula latino, Pacto de silencio (2023) Temporada 1 NF WEB-DL 1080p Latino 1 link mega, Pacto de silencio (2023) Temporada 1 NF WEB-DL 1080p Latino 1 link google drive, Pacto de silencio (2023) Temporada 1 NF WEB-DL 1080p Latino hd 1080p latino.
Comentarios 0