×

¿Problemas para descargar con Mozilla, EDGE? Deshabilita la opción "Abrir vinculos en una pestaña nueva" tal como lo muestra ésta imagen.

Pacto de fuga (2020) AMZN WEB-DL 1080p Latino

244 vistas

Información de Pacto de fuga (2020) AMZN WEB-DL 1080p Latino

Datos de la película

  • Calidad: WEBDL
  • Audio: Español Latino AC3 5.1
  • Subtitulos: Español Latino SRT - Ingles SRT
  • Resolución: 1920x800
  • Formato: MKV
  • Codec: H.264
  • Encoder: cinemaniahdd
  • Mediainfo: Clic para Mostrar Datos Ver
  • Pacto de fuga (2020) AMZN WEB-DL 1080p Latino [CNMNHDD].mkv
    Format                      : Matroska
    Format version              : Version 4
    File size                   : 4.78 GiB
    Duration                    : 2 h 17 min
    Overall bit rate            : 4 961 kb/s
    Movie name                  : Pacto de fuga (2020) - CinemaniaHDD.Net
    Encoded date                : UTC 2020-08-28 22:00:31
    Writing application         : mkvmerge v46.0.0 ('No Deeper Escape') 64-bit
    Writing library             : libebml v1.3.10 + libmatroska v1.5.2

    Video
    ID                          : 1
    Format                      : AVC
    Format/Info                 : Advanced Video Codec
    Format profile              : High@L4
    Format settings             : CABAC / 4 Ref Frames
    Format settings, CABAC      : Yes
    Format settings, Reference  : 4 frames
    Codec ID                    : V_MPEG4/ISO/AVC
    Duration                    : 2 h 17 min
    Bit rate                    : 3 679 kb/s
    Width                       : 1 920 pixels
    Height                      : 800 pixels
    Display aspect ratio        : 2.40:1
    Frame rate mode             : Constant
    Frame rate                  : 23.976 (24000/1001) FPS
    Color space                 : YUV
    Chroma subsampling          : 4:2:0
    Bit depth                   : 8 bits
    Scan type                   : Progressive
    Bits/(Pixel*Frame)          : 0.100
    Stream size                 : 3.54 GiB (74%)
    Title                       : CinemaniaHDD
    Default                     : Yes
    Forced                      : No
    Color range                 : Limited
    Color primaries             : BT.709
    Transfer characteristics    : BT.709
    Matrix coefficients         : BT.709

    Audio #1
    ID                          : 2
    Format                      : AC-3
    Format/Info                 : Audio Coding 3
    Commercial name             : Dolby Digital
    Codec ID                    : A_AC3
    Duration                    : 2 h 17 min
    Bit rate mode               : Constant
    Bit rate                    : 640 kb/s
    Channel(s)                  : 6 channels
    Channel layout              : L R C LFE Ls Rs
    Sampling rate               : 48.0 kHz
    Frame rate                  : 31.250 FPS (1536 SPF)
    Compression mode            : Lossy
    Stream size                 : 631 MiB (13%)
    Title                       : Español latino - AC3 [CinemaniaHDD]
    Language                    : Spanish
    Service kind                : Complete Main
    Default                     : Yes
    Forced                      : No

    Audio #2
    ID                          : 3
    Format                      : E-AC-3
    Format/Info                 : Enhanced AC-3
    Commercial name             : Dolby Digital Plus
    Codec ID                    : A_EAC3
    Duration                    : 2 h 17 min
    Bit rate mode               : Constant
    Bit rate                    : 640 kb/s
    Channel(s)                  : 6 channels
    Channel layout              : L R C LFE Ls Rs
    Sampling rate               : 48.0 kHz
    Frame rate                  : 31.250 FPS (1536 SPF)
    Compression mode            : Lossy
    Stream size                 : 631 MiB (13%)
    Title                       : Español latino - E-AC3 [CinemaniaHDD]
    Language                    : Spanish
    Service kind                : Complete Main
    Default                     : No
    Forced                      : No

    Text #1
    ID                          : 4
    Format                      : UTF-8
    Codec ID                    : S_TEXT/UTF8
    Codec ID/Info               : UTF-8 Plain Text
    Duration                    : 2 h 13 min
    Bit rate                    : 56 b/s
    Count of elements           : 1536
    Stream size                 : 55.0 KiB (0%)
    Title                       : Español latino [CinemaniaHDD]
    Language                    : Spanish
    Default                     : No
    Forced                      : No

    Text #2
    ID                          : 5
    Format                      : UTF-8
    Codec ID                    : S_TEXT/UTF8
    Codec ID/Info               : UTF-8 Plain Text
    Duration                    : 2 h 11 min
    Bit rate                    : 43 b/s
    Count of elements           : 1393
    Stream size                 : 42.0 KiB (0%)
    Title                       : Inglés [CinemaniaHDD]
    Language                    : English
    Default                     : Yes
    Forced                      : No

     

  • Peso: 4.78 GiB

Sinopsis

La noche del 29 de enero de 1990, poco antes de iniciarse la reconstrucción democrática en Chile, medio centenar de presos políticos se fugaron de la cárcel pública de Santiago por un túnel que 24 militantes del Frente Patriótico Manuel Rodríguez (FPMR) habían excavado durante 18 meses, 80 metros de longitud con herramientas tan rudimentarias como cucharas, tenedores y un solo destornillador; escondiendo 55 toneladas de tierra dentro del centro penitenciario. Ni los presos comunes de las celdas cercanas ni los gendarmes que los vigilaban a diario descubrieron el plan que llevaría a 49 reclusos a alcanzar la libertad en uno de los escapes más sorprendentes de la historia penal chilena.

Ficha técnica

Video trailer de la película

Enlaces de descarga

Rip de Bluray

Descargar Pacto de fuga (2020) AMZN WEB-DL 1080p Latino




Aportes de DPeliculasHDmega la pass es:dpeliculashdmega.org Aportes de CinemaniaHD la pass es:cinemaniahdd.com
Guardado en : Drama , Suspenso

Películas relacionadas

  • Togo (2022) NF WEB-DL 1080p Latino

    Togo (2022) NF WEB-DL 1080p Latino

    2022
    Togo (2022) NF WEB-DL 1080p Latino

    1h 35m 2022

    Descargar Togo (2022) NF WEB-DL 1080p Latino. Los narcos de poca monta están copando las calles de Montevideo...

    Director: Adrián Caetano

    Género: Crimen

    Actores: Tito Prieto

  • El Ultimo Juego (2021) WEB-DL 1080p Latino

    El Ultimo Juego (2021) WEB-DL 1080p Latino

    2021
    El Ultimo Juego (2021) WEB-DL 1080p Latino

    1h 21m 2021

    Descargar El Ultimo Juego (2021) WEB-DL 1080p Latino. 6 extraños se despiertan dentro de una habitación...

    Director: John David Moffat IV

    Género: Drama

    Actores: Yasmin Irvine

descargar Pacto de fuga (2020) AMZN WEB-DL 1080p Latino WEBDL 1080p gratis, Pacto de fuga (2020) AMZN WEB-DL 1080p Latino WEBDL mega 1 link, Pacto de fuga (2020) AMZN WEB-DL 1080p Latino WEBDL pelicula completa, descargar Pacto de fuga (2020) AMZN WEB-DL 1080p Latino WEBDL gratis en mega.

Pacto de fuga (2020) AMZN WEB-DL 1080p Latino pelicula full hd, Pacto de fuga (2020) AMZN WEB-DL 1080p Latino mega latino, Pacto de fuga (2020) AMZN WEB-DL 1080p Latino 4k latino, Pacto de fuga (2020) AMZN WEB-DL 1080p Latino pelicula completa, Pacto de fuga (2020) AMZN WEB-DL 1080p Latino descargar gratis, descargar Pacto de fuga (2020) AMZN WEB-DL 1080p Latino pelicula latino, Pacto de fuga (2020) AMZN WEB-DL 1080p Latino 1 link mega, Pacto de fuga (2020) AMZN WEB-DL 1080p Latino 1 link google drive, Pacto de fuga (2020) AMZN WEB-DL 1080p Latino hd 1080p latino.
Comentarios 0