×

¿Problemas para descargar con Mozilla, EDGE? Deshabilita la opción "Abrir vinculos en una pestaña nueva" tal como lo muestra ésta imagen.

Operacion Overlord (2018) Remux 1080p Latino

1.056 vistas

Información de Operacion Overlord (2018) Remux 1080p Latino

overlord 52892 poster

Datos de la película

  • Calidad: Full 1080p
  • Audio: Se especifica abajo de la Sinopsis
  • Subtitulos: Español Latino PGS - Ingles PGS
  • Resolución: 1920x1080p
  • Formato: MKV
  • Codec: H.264
  • Encoder: CinefiloCool
  • Mediainfo: Clic para Mostrar Datos Ver
  • Overlord (2018) Remux 1080p Latino.mkv
    Format                      : Matroska
    Format version              : Version 4
    File size                   : 24.5 GiB
    Duration                    : 1 h 49 min
    Overall bit rate mode       : Variable
    Overall bit rate            : 32.0 Mb/s
    Movie name                  : CinemaniaHDD.Net
    Encoded date                : UTC 2019-05-02 05:29:05
    Writing application         : mkvmerge v30.1.0 ('Forever And More') 64-bit
    Writing library             : libebml v1.3.6 + libmatroska v1.4.9
    Attachments                 : CINEMANIAHD.png
     

    Video
    ID                          : 1
    Format                      : AVC
    Format/Info                 : Advanced Video Codec
    Format profile              : High@L4.1
    Format settings             : CABAC / 4 Ref Frames
    Format settings, CABAC      : Yes
    Format settings, ReFrames   : 4 frames
    Codec ID                    : V_MPEG4/ISO/AVC
    Duration                    : 1 h 49 min
    Bit rate mode               : Variable
    Bit rate                    : 26.5 Mb/s
    Maximum bit rate            : 28.0 Mb/s
    Width                       : 1 920 pixels
    Height                      : 1 080 pixels
    Display aspect ratio        : 16:9
    Frame rate mode             : Constant
    Frame rate                  : 23.976 (24000/1001) FPS
    Color space                 : YUV
    Chroma subsampling          : 4:2:0
    Bit depth                   : 8 bits
    Scan type                   : Progressive
    Bits/(Pixel*Frame)          : 0.534
    Stream size                 : 20.4 GiB (83%)
    Title                       : Full HD1080p [Remux]
    Default                     : Yes
    Forced                      : No

    Audio #1
    ID                          : 2
    Format                      : AC-3
    Format/Info                 : Audio Coding 3
    Commercial name             : Dolby Digital
    Codec ID                    : A_AC3
    Duration                    : 1 h 49 min
    Bit rate mode               : Constant
    Bit rate                    : 640 kb/s
    Channel(s)                  : 6 channels
    Channel layout              : L R C LFE Ls Rs
    Sampling rate               : 48.0 kHz
    Frame rate                  : 31.250 FPS (1536 SPF)
    Bit depth                   : 16 bits
    Compression mode            : Lossy
    Stream size                 : 503 MiB (2%)
    Title                       : AC3_5.1_Bluray_Esp
    Language                    : Spanish
    Service kind                : Complete Main
    Default                     : Yes
    Forced                      : Yes

    Audio #2
    ID                          : 3
    Format                      : MLP FBA 16-ch
    Format/Info                 : Meridian Lossless Packing FBA with 16-channel presentation
    Commercial name             : Dolby TrueHD with Dolby Atmos
    Codec ID                    : A_TRUEHD
    Duration                    : 1 h 49 min
    Bit rate mode               : Variable
    Bit rate                    : 4 722 kb/s
    Maximum bit rate            : 8 355 kb/s
    Channel(s)                  : 8 channels
    Channel layout              : L R C LFE Ls Rs Lb Rb
    Sampling rate               : 48.0 kHz
    Frame rate                  : 1 200.000 FPS (40 SPF)
    Compression mode            : Lossless
    Stream size                 : 3.62 GiB (15%)
    Title                       : THD_7.1_Bluray_Eng
    Language                    : English
    Default                     : No
    Forced                      : No
    Number of dynamic objects   : 11
    Bed channel count           : 1 channel
    Bed channel configuration   : LFE

    Text #1
    ID                          : 4
    Format                      : PGS
    Muxing mode                 : zlib
    Codec ID                    : S_HDMV/PGS
    Codec ID/Info               : Picture based subtitle format used on BDs/HD-DVDs
    Duration                    : 1 h 49 min
    Bit rate                    : 7 890 b/s
    Count of elements           : 1723
    Stream size                 : 6.18 MiB (0%)
    Title                       : Sub_Esp [PGS]
    Language                    : Spanish
    Default                     : No
    Forced                      : No

    Text #2
    ID                          : 5
    Format                      : PGS
    Muxing mode                 : zlib
    Codec ID                    : S_HDMV/PGS
    Codec ID/Info               : Picture based subtitle format used on BDs/HD-DVDs
    Duration                    : 1 h 42 min
    Bit rate                    : 13.7 kb/s
    Count of elements           : 2917
    Stream size                 : 10.0 MiB (0%)
    Title                       : Sub_Eng [PGS]
    Language                    : English
    Default                     : No
    Forced                      : No

    Menu
    00:00:00.000                : en:Chapter 1
    00:06:31.099                : en:Chapter 2
    00:13:47.493                : en:Chapter 3
    00:20:31.313                : en:Chapter 4
    00:26:27.795                : en:Chapter 5
    00:34:08.964                : en:Chapter 6
    00:41:10.593                : en:Chapter 7
    00:48:41.377                : en:Chapter 8
    00:55:50.889                : en:Chapter 9
    01:03:21.464                : en:Chapter 10
    01:10:28.599                : en:Chapter 11
    01:17:21.887                : en:Chapter 12
    01:25:47.601                : en:Chapter 13
    01:32:19.159                : en:Chapter 14
    01:38:48.464                : en:Chapter 15
    01:42:39.195                : en:Chapter 16

  • Peso: 24.5 GiB

Sinopsis

Descargar Operacion Overlord (2018) Remux 1080p Latino. La víspera del Día D, un grupo de soldados aliados es enviado a la Francia ocupada para completar una misión esencial para la victoria. Sobre el terreno, descubren un laboratorio en el que se llevan a cabo descabellados experimentos. La formación que han recibido no les ha preparado para enfrentarse a soldados manipulados genéticamente. Overlord se suma a la insigne lista de producciones de Bad Robot, la revolucionaria compañía de J. J. Abrams.

Audio Español Latino AC3 5.1 Bluray – Ingles True-HD 7.1 Bluray

Ficha técnica

Video trailer de la película

Enlaces de descarga

Rip de Bluray

Descargar Operacion Overlord (2018) Remux 1080p Latino




Aportes de DPeliculasHDmega la pass es:dpeliculashdmega.org Aportes de CinemaniaHD la pass es:cinemaniahdd.com
Guardado en : Bélica , Ciencia ficción , Remux , Terror

Películas relacionadas

  • La Guerra Del Futuro (2022) NF WEB-DL 1080p Latino

    La Guerra Del Futuro (2022) NF WEB-DL 1080p Latino

    2022
    La Guerra Del Futuro (2022) NF WEB-DL 1080p Latino

    1h 41m 2022

    Descargar La Guerra Del Futuro (2022) NF WEB-DL 1080p Latino. Tras la caída de un meteorito que alberga...

    Director: Ng Yuen-fai

    Género: Acción

    Actores: Tse Kwan-Ho

  • Super… ¿quién? (2021) REMUX 1080p Latino

    Super… ¿quién? (2021) REMUX 1080p Latino

    2022
    Super… ¿quién? (2021) REMUX 1080p Latino

    1h 22m 2022

    Descargar Super... ¿quién? (2021) REMUX 1080p Latino. Cedric (Philippe Lacheau) intenta ganarse la...

    Director: Philippe Lacheau

    Género: Acción

    Actores: Yves Yan

  • Observada (2022) HD 1080p Latino

    Observada (2022) HD 1080p Latino

    2022
    Observada (2022) HD 1080p Latino

    1h 35m 2022

    Descargar Observada (2022) HD 1080p Latino. Una joven se muda a un nuevo apartamento con su prometido...

    Director: Chloe Okuno

    Género: HD 1080p

    Actores: Tudor Petruț

  • Observada (2022) PLACEBO Full HD 1080p Latino

    Observada (2022) PLACEBO Full HD 1080p Latino

    2022
    Observada (2022) PLACEBO Full HD 1080p Latino

    1h 35m 2022

    Descargar Observada (2022) PLACEBO Full HD 1080p Latino. Una joven se muda a un nuevo apartamento con...

    Director: Chloe Okuno

    Género: FULL 1080p Plateadas

    Actores: Tudor Petruț

  • Observada (2022) REMUX 1080p Latino

    Observada (2022) REMUX 1080p Latino

    2022
    Observada (2022) REMUX 1080p Latino

    1h 35m 2022

    Descargar Observada (2022) REMUX 1080p Latino. Una joven se muda a un nuevo apartamento con su prometido...

    Director: Chloe Okuno

    Género: Misterio

    Actores: Tudor Petruț

descargar Operacion Overlord (2018) Remux 1080p Latino Full 1080p 1080p gratis, Operacion Overlord (2018) Remux 1080p Latino Full 1080p mega 1 link, Operacion Overlord (2018) Remux 1080p Latino Full 1080p pelicula completa, descargar Operacion Overlord (2018) Remux 1080p Latino Full 1080p gratis en mega.

Operacion Overlord (2018) Remux 1080p Latino pelicula full hd, Operacion Overlord (2018) Remux 1080p Latino mega latino, Operacion Overlord (2018) Remux 1080p Latino 4k latino, Operacion Overlord (2018) Remux 1080p Latino pelicula completa, Operacion Overlord (2018) Remux 1080p Latino descargar gratis, descargar Operacion Overlord (2018) Remux 1080p Latino pelicula latino, Operacion Overlord (2018) Remux 1080p Latino 1 link mega, Operacion Overlord (2018) Remux 1080p Latino 1 link google drive, Operacion Overlord (2018) Remux 1080p Latino hd 1080p latino.
Comentarios 0