×

¿Problemas para descargar con Mozilla, EDGE? Deshabilita la opción "Abrir vinculos en una pestaña nueva" tal como lo muestra ésta imagen.

Overcomer (2019) WEB-DL 1080p latino

955 vistas

Información de Overcomer (2019) WEB-DL 1080p latino

Datos de la película

  • Calidad: WEBDL
  • Audio: Español Latino AC3 2.0 iTunes - Ingles AC3 5.1 iTunes
  • Subtitulos: Español Latino SRT- FORZADOS SRT
  • Resolución: 1920x796
  • Formato: MKV
  • Codec: H.264
  • Encoder: cinemaniahdd
  • Mediainfo: Clic para Mostrar Datos Ver
  • Overcomer (2019) WEB-DL 1080p Latino.mkv
    Format                      : Matroska
    Format version              : Version 4
    File size                   : 4.29 GiB
    Duration                    : 1 h 59 min
    Overall bit rate            : 5 158 kb/s
    Movie name                  : Overcomer (2019) WEB-DL 1080p Latino
    Encoded date                : UTC 2019-11-23 00:58:16
    Writing application         : mkvmerge v38.0.0 ('The Silent Type') 64-bit
    Writing library             : libebml v1.3.9 + libmatroska v1.5.2

    Video
    ID                          : 1
    Format                      : AVC
    Format/Info                 : Advanced Video Codec
    Format profile              : High@L4
    Format settings             : CABAC / 5 Ref Frames
    Format settings, CABAC      : Yes
    Format settings, ReFrames   : 5 frames
    Codec ID                    : V_MPEG4/ISO/AVC
    Duration                    : 1 h 59 min
    Bit rate                    : 4 516 kb/s
    Width                       : 1 920 pixels
    Height                      : 796 pixels
    Display aspect ratio        : 2.40:1
    Frame rate mode             : Constant
    Frame rate                  : 23.976 FPS
    Color space                 : YUV
    Chroma subsampling          : 4:2:0
    Bit depth                   : 8 bits
    Scan type                   : Progressive
    Bits/(Pixel*Frame)          : 0.123
    Stream size                 : 3.76 GiB (88%)
    Title                       : CinemaniaHDD
    Language                    : English
    Default                     : Yes
    Forced                      : No
    Color range                 : Limited
    Color primaries             : BT.709
    Transfer characteristics    : BT.709
    Matrix coefficients         : BT.709

    Audio #1
    ID                          : 2
    Format                      : AC-3
    Format/Info                 : Audio Coding 3
    Commercial name             : Dolby Digital
    Codec ID                    : A_AC3
    Duration                    : 1 h 59 min
    Bit rate mode               : Constant
    Bit rate                    : 256 kb/s
    Channel(s)                  : 2 channels
    Channel layout              : L R
    Sampling rate               : 48.0 kHz
    Frame rate                  : 31.250 FPS (1536 SPF)
    Bit depth                   : 16 bits
    Compression mode            : Lossy
    Delay relative to video     : -43 ms
    Stream size                 : 218 MiB (5%)
    Title                       : Español latino [CinemaniaHDD]
    Language                    : Spanish
    Service kind                : Complete Main
    Default                     : Yes
    Forced                      : No

    Audio #2
    ID                          : 3
    Format                      : AC-3
    Format/Info                 : Audio Coding 3
    Commercial name             : Dolby Digital
    Codec ID                    : A_AC3
    Duration                    : 1 h 59 min
    Bit rate mode               : Constant
    Bit rate                    : 384 kb/s
    Channel(s)                  : 6 channels
    Channel layout              : L R C LFE Ls Rs
    Sampling rate               : 48.0 kHz
    Frame rate                  : 31.250 FPS (1536 SPF)
    Bit depth                   : 16 bits
    Compression mode            : Lossy
    Delay relative to video     : -43 ms
    Stream size                 : 327 MiB (7%)
    Title                       : Inglés [CinemaniaHDD]
    Language                    : English
    Service kind                : Complete Main
    Default                     : No
    Forced                      : No

    Text #1
    ID                          : 4
    Format                      : UTF-8
    Codec ID                    : S_TEXT/UTF8
    Codec ID/Info               : UTF-8 Plain Text
    Duration                    : 1 h 58 min
    Bit rate                    : 0 b/s
    Count of elements           : 15
    Stream size                 : 374 Bytes (0%)
    Title                       : Forzados [CinemaniaHDD]
    Language                    : Spanish
    Default                     : Yes
    Forced                      : Yes

    Text #2
    ID                          : 5
    Format                      : UTF-8
    Codec ID                    : S_TEXT/UTF8
    Codec ID/Info               : UTF-8 Plain Text
    Duration                    : 1 h 58 min
    Bit rate                    : 60 b/s
    Count of elements           : 1736
    Stream size                 : 52.2 KiB (0%)
    Title                       : Español latino [CinemaniaHDD]
    Language                    : Spanish
    Default                     : No
    Forced                      : No

    Menu
    00:00:00.000                : en:1
    00:05:07.849                : en:2
    00:13:24.261                : en:3
    00:18:08.627                : en:4
    00:26:09.148                : en:5
    00:32:39.662                : en:6
    00:40:04.314                : en:7
    00:46:08.594                : en:8
    00:52:47.409                : en:9
    00:59:33.981                : en:10
    01:08:03.073                : en:11
    01:14:53.942                : en:12
    01:23:58.319                : en:13
    01:33:08.326                : en:14
    01:44:12.739                : en:15
    01:51:15.160                : en:16

     

  • Peso: 4.29 GiB

Sinopsis

La vida cambia repentinamente para el Coach John Harrison cuando los sueños de conquistar la liga nacional del equipo de baloncesto que entrena son aplastados por una trágica noticia: una de las mayores empresas de su ciudad cierra y deja sin trabajo a cientos de familias. El futuro de John se ve afectado directamente por esta circunstancia, por lo que decide tratar de buscar un nuevo empleo lo antes posible. Es entonces cuando se cruza en su camino con un joven corredor que persigue uno de los sueños más complicados de lograr: alzarse con la victoria en la carrera de velocidad más importante del año. Aunque al principio no confía en él, el Coach Harrison pronto descubre que la joven promesa tiene mucho más que enseñarle a él que viceversa.

Ficha técnica

  • Titulo original: Overcomer
  • Fecha de lanzamiento: 22-08-2019 (United States of America)
  • Director: Alex Kendrick
  • Género: Drama

Video trailer de la película

Enlaces de descarga

Rip de Bluray

Descargar Overcomer (2019) WEB-DL 1080p latino




Aportes de DPeliculasHDmega la pass es:dpeliculashdmega.org Aportes de CinemaniaHD la pass es:cinemaniahdd.com
Guardado en : Drama

Películas relacionadas

descargar Overcomer (2019) WEB-DL 1080p latino WEBDL 1080p gratis, Overcomer (2019) WEB-DL 1080p latino WEBDL mega 1 link, Overcomer (2019) WEB-DL 1080p latino WEBDL pelicula completa, descargar Overcomer (2019) WEB-DL 1080p latino WEBDL gratis en mega.

Overcomer (2019) WEB-DL 1080p latino pelicula full hd, Overcomer (2019) WEB-DL 1080p latino mega latino, Overcomer (2019) WEB-DL 1080p latino 4k latino, Overcomer (2019) WEB-DL 1080p latino pelicula completa, Overcomer (2019) WEB-DL 1080p latino descargar gratis, descargar Overcomer (2019) WEB-DL 1080p latino pelicula latino, Overcomer (2019) WEB-DL 1080p latino 1 link mega, Overcomer (2019) WEB-DL 1080p latino 1 link google drive, Overcomer (2019) WEB-DL 1080p latino hd 1080p latino.
Comentarios 0