×

¿Problemas para descargar con Mozilla, EDGE? Deshabilita la opción "Abrir vinculos en una pestaña nueva" tal como lo muestra ésta imagen.

Vencedor (2019) REMUX 1080p Latino

367 vistas

Información de Vencedor (2019) REMUX 1080p Latino

Datos de la película

  • Calidad: Full 1080p
  • Audio: Español Latino AC3 5.1 BLURAY - Ingles DTS 5.1 BLURAY
  • Subtitulos: Español Latino PGS - Ingles PGS
  • Resolución: 1920x1080p
  • Formato: MKV
  • Codec: H.264
  • Encoder: CinefiloCool
  • Mediainfo: Clic para Mostrar Datos Ver
  • Overcomer (2019) REMUX 1080p Latino-CMHDD.mkv
    Format                      : Matroska
    Format version              : Version 4
    File size                   : 24.4 GiB
    Duration                    : 1 h 59 min
    Overall bit rate mode       : Variable
    Overall bit rate            : 29.3 Mb/s
    Movie name                  : CinemaniaHDD.Net
    Encoded date                : UTC 2019-12-18 04:31:42
    Writing application         : mkvmerge v38.0.0 ('The Silent Type') 64-bit
    Writing library             : libebml v1.3.9 + libmatroska v1.5.2
    Attachments                 : CINEMANIAHD.png

    Video
    ID                          : 1
    Format                      : AVC
    Format/Info                 : Advanced Video Codec
    Format profile              : High@L4.1
    Format settings             : CABAC / 2 Ref Frames
    Format settings, CABAC      : Yes
    Format settings, ReFrames   : 2 frames
    Codec ID                    : V_MPEG4/ISO/AVC
    Duration                    : 1 h 59 min
    Bit rate mode               : Variable
    Bit rate                    : 24.9 Mb/s
    Width                       : 1 920 pixels
    Height                      : 1 080 pixels
    Display aspect ratio        : 16:9
    Frame rate mode             : Constant
    Frame rate                  : 23.976 (24000/1001) FPS
    Color space                 : YUV
    Chroma subsampling          : 4:2:0
    Bit depth                   : 8 bits
    Scan type                   : Progressive
    Bits/(Pixel*Frame)          : 0.502
    Stream size                 : 20.7 GiB (85%)
    Title                       : Full HD1080p [REMUX]
    Language                    : English
    Default                     : No
    Forced                      : No

    Audio #1
    ID                          : 2
    Format                      : AC-3
    Format/Info                 : Audio Coding 3
    Commercial name             : Dolby Digital
    Codec ID                    : A_AC3
    Duration                    : 1 h 59 min
    Bit rate mode               : Constant
    Bit rate                    : 640 kb/s
    Channel(s)                  : 6 channels
    Channel layout              : L R C LFE Ls Rs
    Sampling rate               : 48.0 kHz
    Frame rate                  : 31.250 FPS (1536 SPF)
    Bit depth                   : 16 bits
    Compression mode            : Lossy
    Stream size                 : 545 MiB (2%)
    Title                       : AC3_5.1_Bluray_Esp
    Language                    : Spanish
    Service kind                : Complete Main
    Default                     : Yes
    Forced                      : Yes

    Audio #2
    ID                          : 3
    Format                      : DTS XLL
    Format/Info                 : Digital Theater Systems
    Commercial name             : DTS-HD Master Audio
    Codec ID                    : A_DTS
    Duration                    : 1 h 59 min
    Bit rate mode               : Variable
    Bit rate                    : 2 214 kb/s
    Channel(s)                  : 6 channels
    Channel layout              : C L R Ls Rs LFE
    Sampling rate               : 48.0 kHz
    Frame rate                  : 93.750 FPS (512 SPF)
    Bit depth                   : 16 bits
    Compression mode            : Lossless
    Stream size                 : 1.84 GiB (8%)
    Title                       : DTS-HD_5.1_Bluray_Eng
    Language                    : English
    Default                     : No
    Forced                      : No

    Audio #3
    ID                          : 4
    Format                      : DTS
    Format/Info                 : Digital Theater Systems
    Codec ID                    : A_DTS
    Duration                    : 1 h 59 min
    Bit rate mode               : Constant
    Bit rate                    : 1 509 kb/s
    Channel(s)                  : 6 channels
    Channel layout              : C L R Ls Rs LFE
    Sampling rate               : 48.0 kHz
    Frame rate                  : 93.750 FPS (512 SPF)
    Bit depth                   : 24 bits
    Compression mode            : Lossy
    Stream size                 : 1.26 GiB (5%)
    Title                       : DTS_5.1_Bluray_Eng
    Language                    : English
    Default                     : No
    Forced                      : No

    Text #1
    ID                          : 5
    Format                      : PGS
    Muxing mode                 : zlib
    Codec ID                    : S_HDMV/PGS
    Codec ID/Info               : Picture based subtitle format used on BDs/HD-DVDs
    Duration                    : 1 h 25 min
    Bit rate                    : 1 956 b/s
    Count of elements           : 158
    Stream size                 : 1.20 MiB (0%)
    Title                       : Sub_Forzados [PGS]
    Language                    : Spanish
    Default                     : Yes
    Forced                      : Yes

    Text #2
    ID                          : 6
    Format                      : PGS
    Muxing mode                 : zlib
    Codec ID                    : S_HDMV/PGS
    Codec ID/Info               : Picture based subtitle format used on BDs/HD-DVDs
    Duration                    : 1 h 58 min
    Bit rate                    : 35.9 kb/s
    Count of elements           : 3484
    Stream size                 : 30.4 MiB (0%)
    Title                       : Sub_Esp [PGS]
    Language                    : Spanish
    Default                     : No
    Forced                      : No

    Text #3
    ID                          : 7
    Format                      : PGS
    Muxing mode                 : zlib
    Codec ID                    : S_HDMV/PGS
    Codec ID/Info               : Picture based subtitle format used on BDs/HD-DVDs
    Duration                    : 1 h 52 min
    Bit rate                    : 36.7 kb/s
    Count of elements           : 3166
    Stream size                 : 29.5 MiB (0%)
    Title                       : Sub_Eng [Eng]
    Language                    : English
    Default                     : No
    Forced                      : No

    Text #4
    ID                          : 8
    Format                      : UTF-8
    Codec ID                    : S_TEXT/UTF8
    Codec ID/Info               : UTF-8 Plain Text
    Duration                    : 1 h 58 min
    Bit rate                    : 60 b/s
    Count of elements           : 1736
    Stream size                 : 52.2 KiB (0%)
    Title                       : Sub_Forzados
    Language                    : Spanish
    Default                     : No
    Forced                      : No

    Text #5
    ID                          : 9
    Format                      : UTF-8
    Codec ID                    : S_TEXT/UTF8
    Codec ID/Info               : UTF-8 Plain Text
    Duration                    : 1 h 25 min
    Bit rate                    : 3 b/s
    Count of elements           : 79
    Stream size                 : 2.35 KiB (0%)
    Title                       : Sub_Esp
    Language                    : Spanish
    Default                     : No
    Forced                      : No

    Menu
    00:00:00.000                : :Chapter 1
    00:05:08.642                : :Chapter 2
    00:13:25.013                : :Chapter 3
    00:18:09.547                : :Chapter 4
    00:26:09.860                : :Chapter 5
    00:32:40.750                : :Chapter 6
    00:40:04.986                : :Chapter 7
    00:46:09.684                : :Chapter 8
    00:52:48.499                : :Chapter 9
    00:59:34.780                : :Chapter 10
    01:08:04.080                : :Chapter 11
    01:14:54.824                : :Chapter 12
    01:23:59.535                : :Chapter 13
    01:33:09.334                : :Chapter 14
    01:44:13.706                : :Chapter 15
    01:51:16.545                : :Chapter 16

  • Peso: 24.4 GiB

Sinopsis

Descargar Vencedor (2019) REMUX 1080p Latino. La vida cambia repentinamente para el Coach John Harrison cuando los sueños de conquistar la liga nacional del equipo de baloncesto que entrena son aplastados por una trágica noticia: una de las mayores empresas de su ciudad cierra y deja sin trabajo a cientos de familias. El futuro de John se ve afectado directamente por esta circunstancia, por lo que decide tratar de buscar un nuevo empleo lo antes posible. Es entonces cuando se cruza en su camino con un joven corredor que persigue uno de los sueños más complicados de lograr: alzarse con la victoria en la carrera de velocidad más importante del año. Aunque al principio no confía en él, el Coach Harrison pronto descubre que la joven promesa tiene mucho más que enseñarle a él que viceversa.

Ficha técnica

  • Titulo original: Overcomer
  • Fecha de lanzamiento: 22-08-2019 (United States of America)
  • Director: Alex Kendrick
  • Género: Drama, Remux

Video trailer de la película

Enlaces de descarga

Rip de Bluray

Descargar Vencedor (2019) REMUX 1080p Latino




Aportes de DPeliculasHDmega la pass es:dpeliculashdmega.org Aportes de CinemaniaHD la pass es:cinemaniahdd.com
Guardado en : Drama , Remux

Películas relacionadas

descargar Vencedor (2019) REMUX 1080p Latino Full 1080p 1080p gratis, Vencedor (2019) REMUX 1080p Latino Full 1080p mega 1 link, Vencedor (2019) REMUX 1080p Latino Full 1080p pelicula completa, descargar Vencedor (2019) REMUX 1080p Latino Full 1080p gratis en mega.

Vencedor (2019) REMUX 1080p Latino pelicula full hd, Vencedor (2019) REMUX 1080p Latino mega latino, Vencedor (2019) REMUX 1080p Latino 4k latino, Vencedor (2019) REMUX 1080p Latino pelicula completa, Vencedor (2019) REMUX 1080p Latino descargar gratis, descargar Vencedor (2019) REMUX 1080p Latino pelicula latino, Vencedor (2019) REMUX 1080p Latino 1 link mega, Vencedor (2019) REMUX 1080p Latino 1 link google drive, Vencedor (2019) REMUX 1080p Latino hd 1080p latino.
Comentarios 0