×

¿Problemas para descargar con Mozilla, EDGE? Deshabilita la opción "Abrir vinculos en una pestaña nueva" tal como lo muestra ésta imagen.

Overboard (1987) REMUX 1080p Latino – CMHDD

156 vistas

Información de Overboard (1987) REMUX 1080p Latino – CMHDD

Datos de la película

  • Calidad: Full 1080p
  • Audio: Español Latino AC3 2.0
  • Subtitulos: Español Latino PGS
  • Resolución: 1920x1080p
  • Formato: MKV
  • Codec: H.264
  • Encoder: Dracarys
  • Mediainfo: Clic para Mostrar Datos Ver
  • Format                      : Matroska
    Format version              : Version 4
    File size                   : 30.0 GiB
    Duration                    : 1 h 52 min
    Overall bit rate mode       : Variable
    Overall bit rate            : 38.3 Mb/s
    Movie name                  : Overboard (1987) REMUX 1080p Latino - CMHDD
    Encoded date                : UTC 2021-05-04 05:33:36
    Writing application         : mkvmerge v56.1.0 ('My Friend') 64-bit
    Writing library             : libebml v1.4.2 + libmatroska v1.6.4
    Cover                       : Yes
    Attachments                 : cover.jpg

    Video
    ID                          : 1
    ID in the original source m : 4113 (0x1011)
    Format                      : AVC
    Format/Info                 : Advanced Video Codec
    Format profile              : High@L4.1
    Format settings             : CABAC / 4 Ref Frames
    Format settings, CABAC      : Yes
    Format settings, Reference  : 4 frames
    Codec ID                    : V_MPEG4/ISO/AVC
    Duration                    : 1 h 52 min
    Bit rate mode               : Variable
    Bit rate                    : 36.0 Mb/s
    Maximum bit rate            : 39.0 Mb/s
    Width                       : 1 920 pixels
    Height                      : 1 080 pixels
    Display aspect ratio        : 16:9
    Frame rate mode             : Constant
    Frame rate                  : 23.976 (24000/1001) FPS
    Color space                 : YUV
    Chroma subsampling          : 4:2:0
    Bit depth                   : 8 bits
    Scan type                   : Progressive
    Bits/(Pixel*Frame)          : 0.724
    Stream size                 : 28.2 GiB (94%)
    Default                     : Yes
    Forced                      : No
    Color range                 : Limited
    Color primaries             : BT.709
    Transfer characteristics    : BT.709
    Matrix coefficients         : BT.709
    Original source medium      : Blu-ray

    Audio #1
    ID                          : 2
    ID in the original source m : 4352 (0x1100)
    Format                      : DTS XLL
    Format/Info                 : Digital Theater Systems
    Commercial name             : DTS-HD Master Audio
    Codec ID                    : A_DTS
    Duration                    : 1 h 52 min
    Bit rate mode               : Variable
    Bit rate                    : 2 118 kb/s
    Channel(s)                  : 2 channels
    Channel layout              : L R
    Sampling rate               : 48.0 kHz
    Frame rate                  : 93.750 FPS (512 SPF)
    Bit depth                   : 24 bits
    Compression mode            : Lossless
    Stream size                 : 1.66 GiB (6%)
    Language                    : English
    Default                     : No
    Forced                      : No
    Original source medium      : Blu-ray

    Audio #2
    ID                          : 3
    ID in the original source m : 4353 (0x1101)
    Format                      : AC-3
    Format/Info                 : Audio Coding 3
    Commercial name             : Dolby Digital
    Codec ID                    : A_AC3
    Duration                    : 1 h 52 min
    Bit rate mode               : Constant
    Bit rate                    : 192 kb/s
    Channel(s)                  : 2 channels
    Channel layout              : L R
    Sampling rate               : 48.0 kHz
    Frame rate                  : 31.250 FPS (1536 SPF)
    Compression mode            : Lossy
    Stream size                 : 154 MiB (1%)
    Language                    : Spanish
    Service kind                : Complete Main
    Default                     : Yes
    Forced                      : No
    Original source medium      : Blu-ray

    Text
    ID                          : 4
    ID in the original source m : 4609 (0x1201)
    Format                      : PGS
    Muxing mode                 : zlib
    Codec ID                    : S_HDMV/PGS
    Codec ID/Info               : Picture based subtitle format used on BDs/HD-DVDs
    Duration                    : 1 h 48 min
    Bit rate                    : 45.9 kb/s
    Count of elements           : 2904
    Stream size                 : 35.5 MiB (0%)
    Language                    : Spanish
    Default                     : Yes
    Forced                      : No
    Original source medium      : Blu-ray

    Menu
    00:00:00.000                : Chapter 01
    00:03:27.999                : Chapter 02
    00:08:07.236                : Chapter 03
    00:12:45.848                : Chapter 04
    00:15:35.684                : Chapter 05
    00:17:37.264                : Chapter 06
    00:21:05.138                : Chapter 07
    00:22:50.160                : Chapter 08
    00:26:45.937                : Chapter 09
    00:28:22.867                : Chapter 10
    00:33:15.451                : Chapter 11
    00:35:51.941                : Chapter 12
    00:38:28.806                : Chapter 13
    00:41:42.917                : Chapter 14
    00:45:27.391                : Chapter 15
    00:47:31.807                : Chapter 16
    00:49:44.231                : Chapter 17
    00:54:49.577                : Chapter 18
    00:58:58.368                : Chapter 19
    01:04:32.827                : Chapter 20
    01:08:01.994                : Chapter 21
    01:10:20.883                : Chapter 22
    01:13:43.168                : Chapter 23
    01:19:13.790                : Chapter 24
    01:24:26.686                : Chapter 2

  • Peso: 30.0 GiB

Sinopsis

Joanna Stayton, una rica y presuntuosa heredera, contrata al carpintero Dean Proffitt porque necesita en su yate un armario para guardar su lujoso vestuario. Cuando Dean fracasa en su encargo, ella lo despide sin pagarle. Poco después, al caerse por la borda, Joanna recibe un golpe que le provoca amnesia. Enterado del hecho por la tele, Dean se inventa una historia para hacerse pasar por su marido.

 

Latino: AC3 2.0  –  Ingles: DTS XLL 2.0

Ficha técnica

Video trailer de la película

Enlaces de descarga

Rip de Bluray

Descargar Overboard (1987) REMUX 1080p Latino – CMHDD


Aportes de DPeliculasHDmega la pass es:dpeliculashdmega.org Aportes de CinemaniaHD la pass es:cinemaniahdd.com
Guardado en : Comedia , Romance

Películas relacionadas

  • Zola (2020) HD 1080p Latino

    Zola (2020) HD 1080p Latino

    2020
    Zola (2020) HD 1080p Latino

    1h 26m 2020

    Descargar Zola (2020) HD 1080p Latino. Una camarera accede a acompañar a una bailarina exótica, su...

    Director: Sheri Davani

    Género: Comedia

    Actores: Ts Madison

  • Zola (2020) PLACEBO Full HD 1080p Latino

    Zola (2020) PLACEBO Full HD 1080p Latino

    2020
    Zola (2020) PLACEBO Full HD 1080p Latino

    1h 26m 2020

    Descargar Zola (2020) PLACEBO Full HD 1080p Latino. Una camarera accede a acompañar a una bailarina...

    Director: Sheri Davani

    Género: Comedia

    Actores: Ts Madison

  • Zola (2020) REMUX 1080p Latino

    Zola (2020) REMUX 1080p Latino

    2020
    Zola (2020) REMUX 1080p Latino

    1h 26m 2020

    Descargar Zola (2020) REMUX 1080p Latino. Una camarera accede a acompañar a una bailarina exótica,...

    Director: Sheri Davani

    Género: Comedia

    Actores: Ts Madison

descargar Overboard (1987) REMUX 1080p Latino – CMHDD Full 1080p 1080p gratis, Overboard (1987) REMUX 1080p Latino – CMHDD Full 1080p mega 1 link, Overboard (1987) REMUX 1080p Latino – CMHDD Full 1080p pelicula completa, descargar Overboard (1987) REMUX 1080p Latino – CMHDD Full 1080p gratis en mega.

Overboard (1987) REMUX 1080p Latino – CMHDD pelicula full hd, Overboard (1987) REMUX 1080p Latino – CMHDD mega latino, Overboard (1987) REMUX 1080p Latino – CMHDD 4k latino, Overboard (1987) REMUX 1080p Latino – CMHDD pelicula completa, Overboard (1987) REMUX 1080p Latino – CMHDD descargar gratis, descargar Overboard (1987) REMUX 1080p Latino – CMHDD pelicula latino, Overboard (1987) REMUX 1080p Latino – CMHDD 1 link mega, Overboard (1987) REMUX 1080p Latino – CMHDD 1 link google drive, Overboard (1987) REMUX 1080p Latino – CMHDD hd 1080p latino.