×

¿Problemas para descargar con Mozilla, EDGE? Deshabilita la opción "Abrir vinculos en una pestaña nueva" tal como lo muestra ésta imagen.

Overboard (1987) Full HD 1080p Latino – CMHDD

270 vistas

Información de Overboard (1987) Full HD 1080p Latino – CMHDD

Datos de la película

  • Calidad: Full 1080p
  • Audio: Se especifica abajo de la Sinopsis
  • Subtitulos: Español Latino PGS
  • Resolución: 1920x1080p
  • Formato: MKV
  • Codec: H.264
  • Encoder: Dracarys
  • Mediainfo: Clic para Mostrar Datos Ver
  • Format                      : Matroska
    Format version              : Version 4
    File size                   : 18.9 GiB
    Duration                    : 1 h 52 min
    Overall bit rate mode       : Variable
    Overall bit rate            : 24.1 Mb/s
    Movie name                  : Overboard (1987) Full HD 1080p Latino - CMHDD
    Encoded date                : UTC 2021-05-05 00:06:15
    Writing application         : mkvmerge v56.1.0 ('My Friend') 64-bit
    Writing library             : libebml v1.4.2 + libmatroska v1.6.4

    Video
    ID                          : 1
    Format                      : AVC
    Format/Info                 : Advanced Video Codec
    Format profile              : High@L4.1
    Format settings             : CABAC / 4 Ref Frames
    Format settings, CABAC      : Yes
    Format settings, Reference  : 4 frames
    Codec ID                    : V_MPEG4/ISO/AVC
    Duration                    : 1 h 52 min
    Bit rate                    : 21.7 Mb/s
    Width                       : 1 920 pixels
    Height                      : 1 080 pixels
    Display aspect ratio        : 16:9
    Frame rate mode             : Constant
    Frame rate                  : 23.976 (24000/1001) FPS
    Color space                 : YUV
    Chroma subsampling          : 4:2:0
    Bit depth                   : 8 bits
    Scan type                   : Progressive
    Bits/(Pixel*Frame)          : 0.437
    Stream size                 : 17.0 GiB (90%)
    Writing library             : x264 core 157 r2935 545de2f
    Encoding settings           : cabac=1 / ref=4 / deblock=1:0:0 / analyse=0x3:0x133 / me=tesa / subme=11 / psy=1 / psy_rd=1.00:0.00 / mixed_ref=1 / me_range=24 / chroma_me=1 / trellis=2 / 8x8dct=1 / cqm=0 / deadzone=21,11 / fast_pskip=0 / chroma_qp_offset=-2 / threads=24 / lookahead_threads=6 / sliced_threads=0 / nr=0 / decimate=1 / interlaced=0 / bluray_compat=0 / constrained_intra=0 / bframes=16 / b_pyramid=2 / b_adapt=2 / b_bias=0 / direct=3 / weightb=1 / open_gop=0 / weightp=2 / keyint=240 / keyint_min=24 / scenecut=40 / intra_refresh=0 / rc_lookahead=60 / rc=crf / mbtree=1 / crf=20.0 / qcomp=0.60 / qpmin=0 / qpmax=69 / qpstep=4 / vbv_maxrate=62500 / vbv_bufsize=78125 / crf_max=0.0 / nal_hrd=none / filler=0 / ip_ratio=1.40 / aq=1:1.00
    Default                     : Yes
    Forced                      : No
    Color range                 : Limited
    Color primaries             : BT.709
    Transfer characteristics    : BT.709
    Matrix coefficients         : BT.709

    Audio #1
    ID                          : 2
    Format                      : AC-3
    Format/Info                 : Audio Coding 3
    Commercial name             : Dolby Digital
    Codec ID                    : A_AC3
    Duration                    : 1 h 52 min
    Bit rate mode               : Constant
    Bit rate                    : 192 kb/s
    Channel(s)                  : 2 channels
    Channel layout              : L R
    Sampling rate               : 48.0 kHz
    Frame rate                  : 31.250 FPS (1536 SPF)
    Compression mode            : Lossy
    Stream size                 : 154 MiB (1%)
    Language                    : Spanish
    Service kind                : Complete Main
    Default                     : Yes
    Forced                      : No

    Audio #2
    ID                          : 3
    Format                      : DTS XLL
    Format/Info                 : Digital Theater Systems
    Commercial name             : DTS-HD Master Audio
    Codec ID                    : A_DTS
    Duration                    : 1 h 52 min
    Bit rate mode               : Variable
    Bit rate                    : 2 118 kb/s
    Channel(s)                  : 2 channels
    Channel layout              : L R
    Sampling rate               : 48.0 kHz
    Frame rate                  : 93.750 FPS (512 SPF)
    Bit depth                   : 24 bits
    Compression mode            : Lossless
    Stream size                 : 1.66 GiB (9%)
    Language                    : English
    Default                     : No
    Forced                      : No

    Text
    ID                          : 4
    Format                      : PGS
    Muxing mode                 : zlib
    Codec ID                    : S_HDMV/PGS
    Codec ID/Info               : Picture based subtitle format used on BDs/HD-DVDs
    Duration                    : 1 h 48 min
    Bit rate                    : 45.9 kb/s
    Count of elements           : 2904
    Stream size                 : 35.5 MiB (0%)
    Language                    : Spanish
    Default                     : No
    Forced                      : No

    Menu
    00:00:00.000                : :Chapter 1
    00:03:28.125                : :Chapter 2
    00:08:07.237                : :Chapter 3
    00:12:45.974                : :Chapter 4
    00:15:35.685                : :Chapter 5
    00:17:37.265                : :Chapter 6
    00:21:05.139                : :Chapter 7
    00:22:50.286                : :Chapter 8
    00:26:45.938                : :Chapter 9
    00:28:22.868                : :Chapter 10
    00:33:15.452                : :Chapter 11
    00:35:52.067                : :Chapter 12
    00:38:28.807                : :Chapter 13
    00:41:43.001                : :Chapter 14
    00:45:27.475                : :Chapter 15
    00:47:31.932                : :Chapter 16
    00:49:44.356                : :Chapter 17
    00:54:49.578                : :Chapter 18
    00:58:58.493                : :Chapter 19
    01:04:32.952                : :Chapter 20
    01:08:01.995                : :Chapter 21
    01:10:21.008                : :Chapter 22
    01:13:43.169                : :Chapter 23
    01:19:13.791                : :Chapter 24
    01:24:26.687                : :Chapter 25
    01:26:17.339                : :Chapter 26
    01:30:00.770                : :Chapter 27
    01:33:16.382                : :Chapter 28
    01:37:15.455                : :Chapter 29
    01:41:07.019                : :Chapter 30
    01:43:24.865                : :Chapter 31
    01:49:41.325                : :Chapter 32

  • Peso: 18.9 GiB

Sinopsis

Joanna Stayton, una rica y presuntuosa heredera, contrata al carpintero Dean Proffitt porque necesita en su yate un armario para guardar su lujoso vestuario. Cuando Dean fracasa en su encargo, ella lo despide sin pagarle. Poco después, al caerse por la borda, Joanna recibe un golpe que le provoca amnesia. Enterado del hecho por la tele, Dean se inventa una historia para hacerse pasar por su marido.

 

Latino: AC3 2.0  –  Ingles: DTS XLL 2.0

Ficha técnica

Video trailer de la película

Enlaces de descarga

Rip de Bluray

Descargar Overboard (1987) Full HD 1080p Latino – CMHDD




Aportes de DPeliculasHDmega la pass es:dpeliculashdmega.org Aportes de CinemaniaHD la pass es:cinemaniahdd.com
Guardado en : Comedia , Romance

Películas relacionadas

  • M3GAN (2023) AMZN WEB-DL 4K UHD HDR Latino

    M3GAN (2023) AMZN WEB-DL 4K UHD HDR Latino

    2022
    M3GAN (2023) AMZN WEB-DL 4K UHD HDR Latino

    1h 42m 2022

    Descargar M3GAN (2023) AMZN WEB-DL 4K UHD HDR Latino. Cuando Gemma se convierte en la cuidadora de su...

    Director: Stephen W. Moore

    Género: 4K HDR

    Actores: Violet McGraw

  • M3GAN (2022) MA WEB-DL 1080p Latino

    M3GAN (2022) MA WEB-DL 1080p Latino

    2022
    M3GAN (2022) MA WEB-DL 1080p Latino

    1h 42m 2022

    Descargar M3GAN (2022) MA WEB-DL 1080p Latino. Cuando Gemma se convierte en la cuidadora de su sobrina...

    Director: Stephen W. Moore

    Género: Ciencia ficción

    Actores: Violet McGraw

  • Noche sin paz (2022) PLACEBO Full HD 1080p Latino

    Noche sin paz (2022) PLACEBO Full HD 1080p Latino

    2022
    Noche sin paz (2022) PLACEBO Full HD 1080p Latino

    1h 41m 2022

    Descargar Noche sin paz (2022) PLACEBO Full HD 1080p Latino. Cuando un equipo de mercenarios irrumpe...

    Director: Tyshana Hobson

    Género: Acción

    Actores: Yoon Cha-Lee

  • Noche sin paz (2022) HD 1080p Latino

    Noche sin paz (2022) HD 1080p Latino

    2022
    Noche sin paz (2022) HD 1080p Latino

    1h 41m 2022

    Descargar Noche sin paz (2022) HD 1080p Latino. Cuando un equipo de mercenarios irrumpe en Nochebuena...

    Director: Tyshana Hobson

    Género: Acción

    Actores: Yoon Cha-Lee

  • Noche sin paz (2022) REMUX 1080p Latino

    Noche sin paz (2022) REMUX 1080p Latino

    2022
    Noche sin paz (2022) REMUX 1080p Latino

    1h 41m 2022

    Descargar Noche sin paz (2022) REMUX 1080p Latino. Cuando un equipo de mercenarios irrumpe en Nochebuena...

    Director: Tyshana Hobson

    Género: Acción

    Actores: Yoon Cha-Lee

descargar Overboard (1987) Full HD 1080p Latino – CMHDD Full 1080p 1080p gratis, Overboard (1987) Full HD 1080p Latino – CMHDD Full 1080p mega 1 link, Overboard (1987) Full HD 1080p Latino – CMHDD Full 1080p pelicula completa, descargar Overboard (1987) Full HD 1080p Latino – CMHDD Full 1080p gratis en mega.

Overboard (1987) Full HD 1080p Latino – CMHDD pelicula full hd, Overboard (1987) Full HD 1080p Latino – CMHDD mega latino, Overboard (1987) Full HD 1080p Latino – CMHDD 4k latino, Overboard (1987) Full HD 1080p Latino – CMHDD pelicula completa, Overboard (1987) Full HD 1080p Latino – CMHDD descargar gratis, descargar Overboard (1987) Full HD 1080p Latino – CMHDD pelicula latino, Overboard (1987) Full HD 1080p Latino – CMHDD 1 link mega, Overboard (1987) Full HD 1080p Latino – CMHDD 1 link google drive, Overboard (1987) Full HD 1080p Latino – CMHDD hd 1080p latino.