×

¿Problemas para descargar con Mozilla, EDGE? Deshabilita la opción "Abrir vinculos en una pestaña nueva" tal como lo muestra ésta imagen.

Outlawed (2018) WEB-DL 1080p Latino

318 vistas

Información de Outlawed (2018) WEB-DL 1080p Latino

Datos de la película

  • Calidad: WEBDL
  • Audio: Español Latino AC3 2.0
  • Subtitulos: No
  • Resolución: 1920x812
  • Formato: MKV
  • Codec: H.264
  • Encoder: CinemaniaHD
  • Mediainfo: Clic para Mostrar Datos Ver
  • Outlawed (2018) WEB-DL 1080p Latino.mkv
    Format                      : Matroska
    Format version              : Version 4
    File size                   : 3.43 GiB
    Duration                    : 1 h 42 min
    Overall bit rate            : 4 813 kb/s
    Encoded date                : UTC 2020-07-11 16:49:25
    Writing application         : mkvmerge v46.0.0 ('No Deeper Escape') 64-bit
    Writing library             : libebml v1.3.10 + libmatroska v1.5.2

    Video
    ID                          : 1
    Format                      : AVC
    Format/Info                 : Advanced Video Codec
    Format profile              : High@L4
    Format settings             : CABAC / 5 Ref Frames
    Format settings, CABAC      : Yes
    Format settings, Reference  : 5 frames
    Codec ID                    : V_MPEG4/ISO/AVC
    Duration                    : 1 h 42 min
    Bit rate                    : 4 555 kb/s
    Width                       : 1 920 pixels
    Height                      : 812 pixels
    Display aspect ratio        : 2.35:1
    Frame rate mode             : Constant
    Frame rate                  : 23.976 (23976/1000) FPS
    Color space                 : YUV
    Chroma subsampling          : 4:2:0
    Bit depth                   : 8 bits
    Scan type                   : Progressive
    Bits/(Pixel*Frame)          : 0.122
    Stream size                 : 3.25 GiB (95%)
    Language                    : English
    Default                     : Yes
    Forced                      : No
    Color range                 : Limited
    Color primaries             : BT.709
    Transfer characteristics    : BT.709
    Matrix coefficients         : BT.709

    Audio
    ID                          : 2
    Format                      : AC-3
    Format/Info                 : Audio Coding 3
    Commercial name             : Dolby Digital
    Codec ID                    : A_AC3
    Duration                    : 1 h 42 min
    Bit rate mode               : Constant
    Bit rate                    : 256 kb/s
    Channel(s)                  : 2 channels
    Channel layout              : L R
    Sampling rate               : 48.0 kHz
    Frame rate                  : 31.250 FPS (1536 SPF)
    Compression mode            : Lossy
    Delay relative to video     : -42 ms
    Stream size                 : 187 MiB (5%)
    Language                    : Spanish
    Service kind                : Complete Main
    Default                     : Yes
    Forced                      : No

    Menu
    00:00:00.000                : en:1
    00:06:37.000                : en:2
    00:12:20.000                : en:3
    00:20:20.000                : en:4
    00:25:22.000                : en:5
    00:31:49.000                : en:6
    00:38:05.000                : en:7
    00:44:55.000                : en:8
    00:51:17.000                : en:9
    00:58:01.000                : en:10
    01:03:39.000                : en:11
    01:09:53.000                : en:12
    01:17:01.000                : en:13
    01:23:18.000                : en:14
    01:29:26.000                : en:15
    01:36:38.000                : en:16

  • Peso: 3.43 GiB

Sinopsis

El Comandante de Royal Marines Jake O’Neil lucha por adaptarse a la vida civil. Cuando una ex novia, Jade Roberts busca su ayuda para descubrir la verdad detrás de la misteriosa muerte de su padre, Jake está de acuerdo, pero se encuentra enredado en una red de corrupción y asesinato.

Ficha técnica

Video trailer de la película

Enlaces de descarga

Rip de Bluray

Descargar Outlawed (2018) WEB-DL 1080p Latino




Aportes de DPeliculasHDmega la pass es:dpeliculashdmega.org Aportes de CinemaniaHD la pass es:cinemaniahdd.com
Guardado en : Acción

Películas relacionadas

descargar Outlawed (2018) WEB-DL 1080p Latino WEBDL 1080p gratis, Outlawed (2018) WEB-DL 1080p Latino WEBDL mega 1 link, Outlawed (2018) WEB-DL 1080p Latino WEBDL pelicula completa, descargar Outlawed (2018) WEB-DL 1080p Latino WEBDL gratis en mega.

Outlawed (2018) WEB-DL 1080p Latino pelicula full hd, Outlawed (2018) WEB-DL 1080p Latino mega latino, Outlawed (2018) WEB-DL 1080p Latino 4k latino, Outlawed (2018) WEB-DL 1080p Latino pelicula completa, Outlawed (2018) WEB-DL 1080p Latino descargar gratis, descargar Outlawed (2018) WEB-DL 1080p Latino pelicula latino, Outlawed (2018) WEB-DL 1080p Latino 1 link mega, Outlawed (2018) WEB-DL 1080p Latino 1 link google drive, Outlawed (2018) WEB-DL 1080p Latino hd 1080p latino.
Comentarios 0