×

¿Problemas para descargar con Mozilla, EDGE? Deshabilita la opción "Abrir vinculos en una pestaña nueva" tal como lo muestra ésta imagen.

Outlander (2022) Sexta Temporada AMZN WEB-DL 1080p (DUB-Starz) Latino

2.915 vistas

Información de Outlander (2022) Sexta Temporada AMZN WEB-DL 1080p (DUB-Starz) Latino

Datos de la película

  • Calidad: 1080p
  • Audio: Español Latino AC3 5.1 WEB-DL - Ingles AC3 5.1 WEB-DL
  • Subtitulos: Español Latino SRT - Ingles SRT
  • Resolución: 1920x1080
  • Formato: MKV
  • Codec: H.264
  • Encoder: cinemaniahdd
  • Mediainfo: Clic para Mostrar Datos Ver
  • Outlander T06E01 AMZN WEB-DL 1080p Latino [CNMNHDD].mkv
    Format                      : Matroska
    Format version              : Version 4
    File size                   : 6.34 GiB
    Duration                    : 1 h 20 min
    Overall bit rate            : 11.2 Mb/s
    Movie name                  : Outlander T06E01 - CinemaniaHDD.Net
    Encoded date                : UTC 2022-03-06 19:18:05
    Writing application         : mkvmerge v56.1.0 ('My Friend') 64-bit
    Writing library             : libebml v1.4.2 + libmatroska v1.6.4

    Video
    ID                          : 1
    Format                      : AVC
    Format/Info                 : Advanced Video Codec
    Format profile              : High@L4
    Format settings             : CABAC / 4 Ref Frames
    Format settings, CABAC      : Yes
    Format settings, Reference  : 4 frames
    Codec ID                    : V_MPEG4/ISO/AVC
    Duration                    : 1 h 20 min
    Bit rate mode               : Constant
    Bit rate                    : 9 304 kb/s
    Nominal bit rate            : 10 000 kb/s
    Width                       : 1 920 pixels
    Height                      : 1 080 pixels
    Display aspect ratio        : 16:9
    Frame rate mode             : Constant
    Frame rate                  : 23.976 (24000/1001) FPS
    Color space                 : YUV
    Chroma subsampling          : 4:2:0
    Bit depth                   : 8 bits
    Scan type                   : Progressive
    Bits/(Pixel*Frame)          : 0.187
    Stream size                 : 5.26 GiB (83%)
    Title                       : CinemaniaHDD
    Default                     : Yes
    Forced                      : No
    Color range                 : Limited
    Color primaries             : BT.709
    Transfer characteristics    : BT.709
    Matrix coefficients         : BT.709

    Audio #1
    ID                          : 2
    Format                      : AC-3
    Format/Info                 : Audio Coding 3
    Commercial name             : Dolby Digital
    Codec ID                    : A_AC3
    Duration                    : 1 h 20 min
    Bit rate mode               : Constant
    Bit rate                    : 640 kb/s
    Channel(s)                  : 6 channels
    Channel layout              : L R C LFE Ls Rs
    Sampling rate               : 48.0 kHz
    Frame rate                  : 31.250 FPS (1536 SPF)
    Compression mode            : Lossy
    Stream size                 : 370 MiB (6%)
    Title                       : Español latino [CinemaniaHDD]
    Language                    : Spanish
    Service kind                : Complete Main
    Default                     : Yes
    Forced                      : No

    Audio #2
    ID                          : 3
    Format                      : E-AC-3
    Format/Info                 : Enhanced AC-3
    Commercial name             : Dolby Digital Plus
    Codec ID                    : A_EAC3
    Duration                    : 1 h 20 min
    Bit rate mode               : Constant
    Bit rate                    : 640 kb/s
    Channel(s)                  : 6 channels
    Channel layout              : L R C LFE Ls Rs
    Sampling rate               : 48.0 kHz
    Frame rate                  : 31.250 FPS (1536 SPF)
    Compression mode            : Lossy
    Stream size                 : 370 MiB (6%)
    Title                       : Español latino / E-AC3 [CinemaniaHDD]
    Language                    : Spanish
    Service kind                : Complete Main
    Default                     : No
    Forced                      : No

    Audio #3
    ID                          : 4
    Format                      : E-AC-3
    Format/Info                 : Enhanced AC-3
    Commercial name             : Dolby Digital Plus
    Codec ID                    : A_EAC3
    Duration                    : 1 h 20 min
    Bit rate mode               : Constant
    Bit rate                    : 640 kb/s
    Channel(s)                  : 6 channels
    Channel layout              : L R C LFE Ls Rs
    Sampling rate               : 48.0 kHz
    Frame rate                  : 31.250 FPS (1536 SPF)
    Compression mode            : Lossy
    Stream size                 : 370 MiB (6%)
    Title                       : Inglés [CinemaniaHDD]
    Language                    : English
    Service kind                : Complete Main
    Default                     : No
    Forced                      : No

    Text #1
    ID                          : 5
    Format                      : UTF-8
    Codec ID                    : S_TEXT/UTF8
    Codec ID/Info               : UTF-8 Plain Text
    Duration                    : 1 h 18 min
    Bit rate                    : 51 b/s
    Count of elements           : 1034
    Stream size                 : 29.8 KiB (0%)
    Title                       : Español latino [CinemaniaHDD]
    Language                    : Spanish
    Default                     : No
    Forced                      : No

    Text #2
    ID                          : 6
    Format                      : UTF-8
    Codec ID                    : S_TEXT/UTF8
    Codec ID/Info               : UTF-8 Plain Text
    Duration                    : 1 h 18 min
    Bit rate                    : 56 b/s
    Count of elements           : 1065
    Stream size                 : 32.3 KiB (0%)
    Title                       : Inglés [CinemaniaHDD]
    Language                    : English
    Default                     : No
    Forced                      : No

     

  • Peso: 6.34 GiB Aprox ---- 41 GiB in 8 Chapters.

Sinopsis

Sigue la historia de Claire Randall, una enfermera de combate casada en los años 40, que misteriosamente es arrastrada atrás en el tiempo hasta 1743, donde se lanza de inmediato a un mundo desconocido, viéndose amenazada su propia vida. Cuando se ve obligada a casarse con Jamie Fraser, un joven guerrero escocés caballeroso y romántico, Claire comienza un pasional triángulo entre dos hombres muy diferentes con dos vidas irreconciliables.

Ficha técnica

Video trailer de la película

Enlaces de descarga

Rip de Bluray

Descargar Outlander (2022) Sexta Temporada AMZN WEB-DL 1080p (DUB-Starz) Latino




Aportes de DPeliculasHDmega la pass es:dpeliculashdmega.org Aportes de CinemaniaHD la pass es:cinemaniahdd.com
Guardado en : Drama , Sci-Fi & Fantasy , Series

Películas relacionadas

  • Obi-Wan Kenobi (2022) Temporada 1 WEB-DL 1080p Latino

    Obi-Wan Kenobi (2022) Temporada 1 WEB-DL 1080p Latino

    2022
    Obi-Wan Kenobi (2022) Temporada 1 WEB-DL 1080p Latino

    0h 0m 2022

    Obi-Wan Kenobi (2022) Temporada 1 WEB-DL 1080p Latino. Miniserie de TV basada en la figura de Obi-Wan...

    Director: Joby Harold

    Género: Action & Adventure

    Actores: Vivien Lyra Blair

  • Warning (2021) PLACEBO Full HD 1080p Latino

    Warning (2021) PLACEBO Full HD 1080p Latino

    2021
    Warning (2021) PLACEBO Full HD 1080p Latino

    1h 25m 2021

    Descargar Warning (2021) PLACEBO Full HD 1080p Latino. Ambientada en un futuro no muy lejano, la obra...

    Director: Agata Alexander

    Género: Ciencia ficción

    Actores: Toni Garrn

  • Warning (2021) REMUX 1080p Latino

    Warning (2021) REMUX 1080p Latino

    2021
    Warning (2021) REMUX 1080p Latino

    1h 25m 2021

    Descargar Warning (2021) REMUX 1080p Latino. Ambientada en un futuro no muy lejano, la obra reflexiona...

    Director: Agata Alexander

    Género: Ciencia ficción

    Actores: Toni Garrn

Outlander (2022) Sexta Temporada AMZN WEB-DL 1080p (DUB-Starz) Latino pelicula full hd, Outlander (2022) Sexta Temporada AMZN WEB-DL 1080p (DUB-Starz) Latino mega latino, Outlander (2022) Sexta Temporada AMZN WEB-DL 1080p (DUB-Starz) Latino 4k latino, Outlander (2022) Sexta Temporada AMZN WEB-DL 1080p (DUB-Starz) Latino pelicula completa, Outlander (2022) Sexta Temporada AMZN WEB-DL 1080p (DUB-Starz) Latino descargar gratis, descargar Outlander (2022) Sexta Temporada AMZN WEB-DL 1080p (DUB-Starz) Latino pelicula latino, Outlander (2022) Sexta Temporada AMZN WEB-DL 1080p (DUB-Starz) Latino 1 link mega, Outlander (2022) Sexta Temporada AMZN WEB-DL 1080p (DUB-Starz) Latino 1 link google drive, Outlander (2022) Sexta Temporada AMZN WEB-DL 1080p (DUB-Starz) Latino hd 1080p latino.
Comentarios 0