×

¿Problemas para descargar con Mozilla, EDGE? Deshabilita la opción "Abrir vinculos en una pestaña nueva" tal como lo muestra ésta imagen.

Outlander (2022) Sexta Temporada Star+ WEB-DL 1080p (DUB-Sony) Latino

236 vistas

Información de Outlander (2022) Sexta Temporada Star+ WEB-DL 1080p (DUB-Sony) Latino

Datos de la película

  • Calidad: 1080p
  • Audio: Español Latino AC3 5.1 WEB-DL - Ingles AC3 5.1 WEB-DL
  • Subtitulos: Español Latino SRT - Ingles SRT
  • Resolución: 1920x1080
  • Formato: MKV
  • Codec: H.264
  • Encoder: cinemaniahdd
  • Mediainfo: Clic para Mostrar Datos Ver
  • Outlander T06E01 Star+ WEB-DL 1080p Latino [CNMNHDD].mkv
    Format                      : Matroska
    Format version              : Version 4
    File size                   : 3.82 GiB
    Duration                    : 1 h 20 min
    Overall bit rate mode       : Variable
    Overall bit rate            : 6 807 kb/s
    Movie name                  : Outlander S06E01 [1080p] - CinemaniaHDD.Net
    Encoded date                : UTC 2022-05-06 23:56:51
    Writing application         : mkvmerge v59.0.0 ('Shining Star') 64-bit
    Writing library             : libebml v1.4.2 + libmatroska v1.6.4

    Video
    ID                          : 1
    Format                      : AVC
    Format/Info                 : Advanced Video Codec
    Format profile              : High@L4
    Format settings             : CABAC / 4 Ref Frames
    Format settings, CABAC      : Yes
    Format settings, Reference  : 4 frames
    Codec ID                    : V_MPEG4/ISO/AVC
    Duration                    : 1 h 20 min
    Bit rate mode               : Variable
    Bit rate                    : 6 296 kb/s
    Maximum bit rate            : 12.7 Mb/s
    Width                       : 1 920 pixels
    Height                      : 1 080 pixels
    Display aspect ratio        : 16:9
    Frame rate mode             : Constant
    Frame rate                  : 23.976 (24000/1001) FPS
    Color space                 : YUV
    Chroma subsampling          : 4:2:0
    Bit depth                   : 8 bits
    Scan type                   : Progressive
    Bits/(Pixel*Frame)          : 0.127
    Stream size                 : 3.53 GiB (92%)
    Title                       : CinemaniaHDD
    Default                     : Yes
    Forced                      : No
    Color range                 : Limited
    Color primaries             : BT.709
    Transfer characteristics    : BT.709
    Matrix coefficients         : BT.709

    Audio #1
    ID                          : 2
    Format                      : E-AC-3
    Format/Info                 : Enhanced AC-3
    Commercial name             : Dolby Digital Plus
    Codec ID                    : A_EAC3
    Duration                    : 1 h 20 min
    Bit rate mode               : Constant
    Bit rate                    : 256 kb/s
    Channel(s)                  : 6 channels
    Channel layout              : L R C LFE Ls Rs
    Sampling rate               : 48.0 kHz
    Frame rate                  : 31.250 FPS (1536 SPF)
    Compression mode            : Lossy
    Stream size                 : 147 MiB (4%)
    Title                       : Español latino [CinemaniaHDD]
    Language                    : Spanish
    Service kind                : Complete Main
    Default                     : No
    Forced                      : No

    Audio #2
    ID                          : 3
    Format                      : E-AC-3
    Format/Info                 : Enhanced AC-3
    Commercial name             : Dolby Digital Plus
    Codec ID                    : A_EAC3
    Duration                    : 1 h 20 min
    Bit rate mode               : Constant
    Bit rate                    : 256 kb/s
    Channel(s)                  : 6 channels
    Channel layout              : L R C LFE Ls Rs
    Sampling rate               : 48.0 kHz
    Frame rate                  : 31.250 FPS (1536 SPF)
    Compression mode            : Lossy
    Stream size                 : 147 MiB (4%)
    Title                       : Inglés [CinemaniaHDD]
    Language                    : English
    Service kind                : Complete Main
    Default                     : No
    Forced                      : No

    Text #1
    ID                          : 4
    Format                      : UTF-8
    Codec ID                    : S_TEXT/UTF8
    Codec ID/Info               : UTF-8 Plain Text
    Duration                    : 1 h 19 min
    Bit rate                    : 49 b/s
    Count of elements           : 853
    Stream size                 : 28.9 KiB (0%)
    Title                       : Español latino [CinemaniaHDD]
    Language                    : Spanish
    Default                     : No
    Forced                      : No

    Text #2
    ID                          : 5
    Format                      : UTF-8
    Codec ID                    : S_TEXT/UTF8
    Codec ID/Info               : UTF-8 Plain Text
    Duration                    : 1 h 18 min
    Bit rate                    : 58 b/s
    Count of elements           : 995
    Stream size                 : 34.0 KiB (0%)
    Title                       : Inglés [CinemaniaHDD]
    Language                    : English
    Default                     : No
    Forced                      : No

     

  • Peso: 3.82 GiB Aprox ---- 25 GiB in 8 Chapters. - DOBLAJE ARGENTINO

Sinopsis

Sigue la historia de Claire Randall, una enfermera de combate casada en los años 40, que misteriosamente es arrastrada atrás en el tiempo hasta 1743, donde se lanza de inmediato a un mundo desconocido, viéndose amenazada su propia vida. Cuando se ve obligada a casarse con Jamie Fraser, un joven guerrero escocés caballeroso y romántico, Claire comienza un pasional triángulo entre dos hombres muy diferentes con dos vidas irreconciliables.

DOBLAJE ARGENTINO

Ficha técnica

Video trailer de la película

Enlaces de descarga

Rip de Bluray

Descargar Outlander (2022) Sexta Temporada Star+ WEB-DL 1080p (DUB-Sony) Latino




Aportes de DPeliculasHDmega la pass es:dpeliculashdmega.org Aportes de CinemaniaHD la pass es:cinemaniahdd.com
Guardado en : Drama , Sci-Fi & Fantasy , Series

Películas relacionadas

descargar Outlander (2022) Sexta Temporada Star+ WEB-DL 1080p (DUB-Sony) Latino 1080p 1080p gratis, Outlander (2022) Sexta Temporada Star+ WEB-DL 1080p (DUB-Sony) Latino 1080p mega 1 link, Outlander (2022) Sexta Temporada Star+ WEB-DL 1080p (DUB-Sony) Latino 1080p serie completa, descargar Outlander (2022) Sexta Temporada Star+ WEB-DL 1080p (DUB-Sony) Latino 1080p gratis en mega.

Outlander (2022) Sexta Temporada Star+ WEB-DL 1080p (DUB-Sony) Latino pelicula full hd, Outlander (2022) Sexta Temporada Star+ WEB-DL 1080p (DUB-Sony) Latino mega latino, Outlander (2022) Sexta Temporada Star+ WEB-DL 1080p (DUB-Sony) Latino 4k latino, Outlander (2022) Sexta Temporada Star+ WEB-DL 1080p (DUB-Sony) Latino pelicula completa, Outlander (2022) Sexta Temporada Star+ WEB-DL 1080p (DUB-Sony) Latino descargar gratis, descargar Outlander (2022) Sexta Temporada Star+ WEB-DL 1080p (DUB-Sony) Latino pelicula latino, Outlander (2022) Sexta Temporada Star+ WEB-DL 1080p (DUB-Sony) Latino 1 link mega, Outlander (2022) Sexta Temporada Star+ WEB-DL 1080p (DUB-Sony) Latino 1 link google drive, Outlander (2022) Sexta Temporada Star+ WEB-DL 1080p (DUB-Sony) Latino hd 1080p latino.
Comentarios 0