×

¿Problemas para descargar con Mozilla, EDGE? Deshabilita la opción "Abrir vinculos en una pestaña nueva" tal como lo muestra ésta imagen.

Outlander (2014 – 2020) Temporadas [1/5] WEB-DL 1080p (DUB-Sony) Latino

348 vistas

Información de Outlander (2014 – 2020) Temporadas [1/5] WEB-DL 1080p (DUB-Sony) Latino

Datos de la película

  • Calidad: WEBDL
  • Audio: Español Latino AC3 5.1 WEB-DL - Ingles AC3 5.1 WEB-DL
  • Subtitulos: Español Latino SRT
  • Resolución: 1920x1080
  • Formato: MKV
  • Codec: H.264
  • Encoder: cinemaniahdd
  • Mediainfo: Clic para Mostrar Datos Ver
  • Outlander T05E12 WE-DL 1080p Latino [CNMNHDD].mkv
    Format                      : Matroska
    Format version              : Version 4
    File size                   : 1.33 GiB
    Duration                    : 51 min 29 s
    Overall bit rate mode       : Variable
    Overall bit rate            : 3 701 kb/s
    Movie name                  : Outlander T05E12 - CinemaniaHDD.Net
    Encoded date                : UTC 2022-03-29 01:55:07
    Writing application         : mkvmerge v58.0.0 ('Supper's Ready') 32-bit
    Writing library             : libebml v1.4.2 + libmatroska v1.6.4

    Video
    ID                          : 1
    Format                      : AVC
    Format/Info                 : Advanced Video Codec
    Format profile              : High@L4
    Format settings             : CABAC / 4 Ref Frames
    Format settings, CABAC      : Yes
    Format settings, Reference  : 4 frames
    Codec ID                    : V_MPEG4/ISO/AVC
    Duration                    : 51 min 28 s
    Bit rate mode               : Variable
    Bit rate                    : 2 931 kb/s
    Width                       : 1 920 pixels
    Height                      : 1 080 pixels
    Display aspect ratio        : 16:9
    Frame rate mode             : Constant
    Frame rate                  : 23.976 (24000/1001) FPS
    Color space                 : YUV
    Chroma subsampling          : 4:2:0
    Bit depth                   : 8 bits
    Scan type                   : Progressive
    Bits/(Pixel*Frame)          : 0.059
    Stream size                 : 1.05 GiB (79%)
    Title                       : CinemaniaHDD
    Default                     : Yes
    Forced                      : No

    Audio #1
    ID                          : 2
    Format                      : AC-3
    Format/Info                 : Audio Coding 3
    Commercial name             : Dolby Digital
    Codec ID                    : A_AC3
    Duration                    : 51 min 29 s
    Bit rate mode               : Constant
    Bit rate                    : 384 kb/s
    Channel(s)                  : 6 channels
    Channel layout              : L R C LFE Ls Rs
    Sampling rate               : 48.0 kHz
    Frame rate                  : 31.250 FPS (1536 SPF)
    Bit depth                   : 32 bits
    Compression mode            : Lossy
    Stream size                 : 141 MiB (10%)
    Title                       : Español latino (doblaje / Sony) [CinemaniaHDD]
    Language                    : Spanish
    Service kind                : Complete Main
    Default                     : Yes
    Forced                      : No

    Audio #2
    ID                          : 3
    Format                      : AC-3
    Format/Info                 : Audio Coding 3
    Commercial name             : Dolby Digital
    Codec ID                    : A_AC3
    Duration                    : 51 min 29 s
    Bit rate mode               : Constant
    Bit rate                    : 384 kb/s
    Channel(s)                  : 6 channels
    Channel layout              : L R C LFE Ls Rs
    Sampling rate               : 48.0 kHz
    Frame rate                  : 31.250 FPS (1536 SPF)
    Bit depth                   : 32 bits
    Compression mode            : Lossy
    Stream size                 : 141 MiB (10%)
    Title                       : Inglés [CinemaniaHDD]
    Language                    : English
    Service kind                : Complete Main
    Default                     : Yes
    Forced                      : No

    Text
    ID                          : 4
    Format                      : UTF-8
    Codec ID                    : S_TEXT/UTF8
    Codec ID/Info               : UTF-8 Plain Text
    Duration                    : 48 min 56 s
    Bit rate                    : 34 b/s
    Count of elements           : 457
    Stream size                 : 12.2 KiB (0%)
    Title                       : Español latino [CinemaniaHDD]
    Language                    : Spanish
    Default                     : No
    Forced                      : No

     

  • Peso: 1.33 GiB Aprox ---- 128 GiB in 67 Chapters. DOBLAJE ARGENTINO

Sinopsis

Sigue la historia de Claire Randall, una enfermera de combate casada en los años 40, que misteriosamente es arrastrada atrás en el tiempo hasta 1743, donde se lanza de inmediato a un mundo desconocido, viéndose amenazada su propia vida. Cuando se ve obligada a casarse con Jamie Fraser, un joven guerrero escocés caballeroso y romántico, Claire comienza un pasional triángulo entre dos hombres muy diferentes con dos vidas irreconciliables.

DOBLAJE ARGENTINO

Ficha técnica

Video trailer de la película

Enlaces de descarga

Rip de Bluray

Descargar Outlander (2014 – 2020) Temporadas [1/5] WEB-DL 1080p (DUB-Sony) Latino




Aportes de DPeliculasHDmega la pass es:dpeliculashdmega.org Aportes de CinemaniaHD la pass es:cinemaniahdd.com
Guardado en : Drama , Sci-Fi & Fantasy , Series

Películas relacionadas

descargar Outlander (2014 – 2020) Temporadas [1/5] WEB-DL 1080p (DUB-Sony) Latino WEBDL 1080p gratis, Outlander (2014 – 2020) Temporadas [1/5] WEB-DL 1080p (DUB-Sony) Latino WEBDL mega 1 link, Outlander (2014 – 2020) Temporadas [1/5] WEB-DL 1080p (DUB-Sony) Latino WEBDL serie completa, descargar Outlander (2014 – 2020) Temporadas [1/5] WEB-DL 1080p (DUB-Sony) Latino WEBDL gratis en mega.

Outlander (2014 – 2020) Temporadas [1/5] WEB-DL 1080p (DUB-Sony) Latino pelicula full hd, Outlander (2014 – 2020) Temporadas [1/5] WEB-DL 1080p (DUB-Sony) Latino mega latino, Outlander (2014 – 2020) Temporadas [1/5] WEB-DL 1080p (DUB-Sony) Latino 4k latino, Outlander (2014 – 2020) Temporadas [1/5] WEB-DL 1080p (DUB-Sony) Latino pelicula completa, Outlander (2014 – 2020) Temporadas [1/5] WEB-DL 1080p (DUB-Sony) Latino descargar gratis, descargar Outlander (2014 – 2020) Temporadas [1/5] WEB-DL 1080p (DUB-Sony) Latino pelicula latino, Outlander (2014 – 2020) Temporadas [1/5] WEB-DL 1080p (DUB-Sony) Latino 1 link mega, Outlander (2014 – 2020) Temporadas [1/5] WEB-DL 1080p (DUB-Sony) Latino 1 link google drive, Outlander (2014 – 2020) Temporadas [1/5] WEB-DL 1080p (DUB-Sony) Latino hd 1080p latino.
Comentarios 0