×

¿Problemas para descargar con Mozilla, EDGE? Deshabilita la opción "Abrir vinculos en una pestaña nueva" tal como lo muestra ésta imagen.

Outer Range (2022) Primera Temporada AMZN WEB-DL 1080p Latino

1.465 vistas

Información de Outer Range (2022) Primera Temporada AMZN WEB-DL 1080p Latino

Datos de la película

  • Calidad: 1080p
  • Audio: Español Latino AC3 5.1 WEB-DL - Ingles AC3 5.1 WEB-DL
  • Subtitulos: Español Latino SRT- FORZADOS SRT
  • Resolución: 1920x1080
  • Formato: MKV
  • Codec: H.264
  • Encoder: cinemaniahdd
  • Mediainfo: Clic para Mostrar Datos Ver
  • Outer Range T01E01 AMZN WEB-DL 1080p Latino [CNMNHDD].mkv
    Format                      : Matroska
    Format version              : Version 4
    File size                   : 4.08 GiB
    Duration                    : 57 min 35 s
    Overall bit rate            : 10.2 Mb/s
    Movie name                  : Outer Range S01E01 - The Void [1080p] - CinemaniaHDD.Net
    Encoded date                : UTC 2022-04-15 03:02:53
    Writing application         : mkvmerge v56.1.0 ('My Friend') 64-bit
    Writing library             : libebml v1.4.2 + libmatroska v1.6.4

    Video
    ID                          : 1
    Format                      : AVC
    Format/Info                 : Advanced Video Codec
    Format profile              : High@L4
    Format settings             : CABAC / 4 Ref Frames
    Format settings, CABAC      : Yes
    Format settings, Reference  : 4 frames
    Codec ID                    : V_MPEG4/ISO/AVC
    Duration                    : 57 min 35 s
    Bit rate mode               : Constant
    Bit rate                    : 8 230 kb/s
    Nominal bit rate            : 10 000 kb/s
    Width                       : 1 920 pixels
    Height                      : 1 080 pixels
    Display aspect ratio        : 16:9
    Frame rate mode             : Constant
    Frame rate                  : 24.000 FPS
    Color space                 : YUV
    Chroma subsampling          : 4:2:0
    Bit depth                   : 8 bits
    Scan type                   : Progressive
    Bits/(Pixel*Frame)          : 0.165
    Stream size                 : 3.31 GiB (81%)
    Title                       : CinemaniaHDD
    Default                     : Yes
    Forced                      : No
    Color range                 : Limited
    Color primaries             : BT.709
    Transfer characteristics    : BT.709
    Matrix coefficients         : BT.709

    Audio #1
    ID                          : 2
    Format                      : AC-3
    Format/Info                 : Audio Coding 3
    Commercial name             : Dolby Digital
    Codec ID                    : A_AC3
    Duration                    : 57 min 35 s
    Bit rate mode               : Constant
    Bit rate                    : 640 kb/s
    Channel(s)                  : 6 channels
    Channel layout              : L R C LFE Ls Rs
    Sampling rate               : 48.0 kHz
    Frame rate                  : 31.250 FPS (1536 SPF)
    Compression mode            : Lossy
    Stream size                 : 264 MiB (6%)
    Title                       : Español latino [CinemaniaHDD]
    Language                    : Spanish
    Service kind                : Complete Main
    Default                     : Yes
    Forced                      : No

    Audio #2
    ID                          : 3
    Format                      : E-AC-3
    Format/Info                 : Enhanced AC-3
    Commercial name             : Dolby Digital Plus
    Codec ID                    : A_EAC3
    Duration                    : 57 min 35 s
    Bit rate mode               : Constant
    Bit rate                    : 640 kb/s
    Channel(s)                  : 6 channels
    Channel layout              : L R C LFE Ls Rs
    Sampling rate               : 48.0 kHz
    Frame rate                  : 31.250 FPS (1536 SPF)
    Compression mode            : Lossy
    Stream size                 : 264 MiB (6%)
    Title                       : Español latino / E-AC3 [CinemaniaHDD]
    Language                    : Spanish
    Service kind                : Complete Main
    Default                     : No
    Forced                      : No

    Audio #3
    ID                          : 4
    Format                      : E-AC-3
    Format/Info                 : Enhanced AC-3
    Commercial name             : Dolby Digital Plus
    Codec ID                    : A_EAC3
    Duration                    : 57 min 35 s
    Bit rate mode               : Constant
    Bit rate                    : 640 kb/s
    Channel(s)                  : 6 channels
    Channel layout              : L R C LFE Ls Rs
    Sampling rate               : 48.0 kHz
    Frame rate                  : 31.250 FPS (1536 SPF)
    Compression mode            : Lossy
    Stream size                 : 264 MiB (6%)
    Title                       : Inglés [CinemaniaHDD]
    Language                    : English
    Service kind                : Complete Main
    Default                     : No
    Forced                      : No

    Text #1
    ID                          : 5
    Format                      : UTF-8
    Codec ID                    : S_TEXT/UTF8
    Codec ID/Info               : UTF-8 Plain Text
    Duration                    : 23 min 41 s
    Bit rate                    : 1 b/s
    Count of elements           : 11
    Stream size                 : 288 Bytes (0%)
    Title                       : Forzados [CinemaniaHDD]
    Language                    : Spanish
    Default                     : Yes
    Forced                      : Yes

    Text #2
    ID                          : 6
    Format                      : UTF-8
    Codec ID                    : S_TEXT/UTF8
    Codec ID/Info               : UTF-8 Plain Text
    Duration                    : 56 min 2 s
    Bit rate                    : 34 b/s
    Count of elements           : 472
    Stream size                 : 14.1 KiB (0%)
    Title                       : Español latino [CinemaniaHDD]
    Language                    : Spanish
    Default                     : No
    Forced                      : No

    Menu
    00:00:00.000                : Amazon Original
    00:00:04.000                : Scene 2
    00:01:27.000                : Title Sequence
    00:01:33.000                : Scene 4
    00:04:00.000                : Scene 5
    00:06:18.000                : Scene 6
    00:08:36.000                : Scene 7
    00:12:20.000                : Scene 8
    00:15:29.000                : Scene 9
    00:17:46.000                : Scene 10
    00:20:55.000                : Scene 11
    00:23:44.000                : Scene 12
    00:24:24.000                : Scene 13
    00:28:22.000                : Scene 14
    00:30:44.000                : Scene 15
    00:33:29.000                : Scene 16
    00:37:56.000                : Scene 17
    00:39:29.000                : Scene 18
    00:40:02.000                : Scene 19
    00:41:08.000                : Scene 20
    00:43:28.000                : Scene 21
    00:44:31.000                : Scene 22
    00:49:12.000                : Scene 23
    00:52:19.000                : Scene 24
    00:52:22.000                : Scene 25
    00:54:35.000                : End Credits

     

  • Peso: 4.08 GiB Aprox ---- 23 GiB in 8 Chapters.

Sinopsis

Un ganadero que lucha por su tierra y su familia descubre un misterio insondable al borde de la tierra salvaje de Wyoming.

Ficha técnica

Video trailer de la película

Enlaces de descarga

Rip de Bluray

Descargar Outer Range (2022) Primera Temporada AMZN WEB-DL 1080p Latino




Aportes de DPeliculasHDmega la pass es:dpeliculashdmega.org Aportes de CinemaniaHD la pass es:cinemaniahdd.com
Guardado en : Misterio , Series , Western

Películas relacionadas

descargar Outer Range (2022) Primera Temporada AMZN WEB-DL 1080p Latino 1080p 1080p gratis, Outer Range (2022) Primera Temporada AMZN WEB-DL 1080p Latino 1080p mega 1 link, Outer Range (2022) Primera Temporada AMZN WEB-DL 1080p Latino 1080p serie completa, descargar Outer Range (2022) Primera Temporada AMZN WEB-DL 1080p Latino 1080p gratis en mega.

Outer Range (2022) Primera Temporada AMZN WEB-DL 1080p Latino pelicula full hd, Outer Range (2022) Primera Temporada AMZN WEB-DL 1080p Latino mega latino, Outer Range (2022) Primera Temporada AMZN WEB-DL 1080p Latino 4k latino, Outer Range (2022) Primera Temporada AMZN WEB-DL 1080p Latino pelicula completa, Outer Range (2022) Primera Temporada AMZN WEB-DL 1080p Latino descargar gratis, descargar Outer Range (2022) Primera Temporada AMZN WEB-DL 1080p Latino pelicula latino, Outer Range (2022) Primera Temporada AMZN WEB-DL 1080p Latino 1 link mega, Outer Range (2022) Primera Temporada AMZN WEB-DL 1080p Latino 1 link google drive, Outer Range (2022) Primera Temporada AMZN WEB-DL 1080p Latino hd 1080p latino.
Comentarios 0