×

¿Problemas para descargar con Mozilla, EDGE? Deshabilita la opción "Abrir vinculos en una pestaña nueva" tal como lo muestra ésta imagen.

Epidemia (1995) REMUX 1080p Latino

288 vistas

Información de Epidemia (1995) REMUX 1080p Latino

Datos de la película

  • Calidad: Full 1080p
  • Audio: Se especifica abajo de la Sinopsis
  • Subtitulos: Español Latino PGS - Ingles PGS
  • Resolución: 1920x1080p
  • Formato: MKV
  • Codec: H.264
  • Encoder: CinefiloCool
  • Mediainfo: Clic para Mostrar Datos Ver
  • Epidemia (1995) REMUX 1080p Latino-CMHDD.mkv
    Format                      : Matroska
    Format version              : Version 4
    File size                   : 15.8 GiB
    Duration                    : 2 h 8 min
    Overall bit rate mode       : Variable
    Overall bit rate            : 17.6 Mb/s
    Movie name                  : Outbreak (1995) CinemaniaHDD.Net
    Encoded date                : UTC 2023-02-12 23:14:27
    Writing application         : mkvmerge v56.1.0 ('My Friend') 64-bit
    Writing library             : libebml v1.4.2 + libmatroska v1.6.4
    Attachments                 : CINEMANIAHD.png

    Video
    ID                          : 1
    ID in the original source m : 4113 (0x1011)
    Format                      : VC-1
    Format profile              : Advanced@L3
    Codec ID                    : V_MS/VFW/FOURCC / WVC1
    Codec ID/Hint               : Microsoft
    Duration                    : 2 h 8 min
    Bit rate                    : 15.0 Mb/s
    Width                       : 1 920 pixels
    Height                      : 1 080 pixels
    Display aspect ratio        : 16:9
    Frame rate mode             : Constant
    Frame rate                  : 23.976 (24000/1001) FPS
    Color space                 : YUV
    Chroma subsampling          : 4:2:0
    Bit depth                   : 8 bits
    Scan type                   : Progressive
    Compression mode            : Lossy
    Bits/(Pixel*Frame)          : 0.302
    Stream size                 : 13.4 GiB (85%)
    Title                       : REMUX HD1080p [CinemaniaHDD]
    Default                     : Yes
    Forced                      : Yes
    Original source medium      : Blu-ray

    Audio #1
    ID                          : 2
    ID in the original source m : 4357 (0x1105)
    Format                      : AC-3
    Format/Info                 : Audio Coding 3
    Commercial name             : Dolby Digital
    Codec ID                    : A_AC3
    Duration                    : 2 h 8 min
    Bit rate mode               : Constant
    Bit rate                    : 192 kb/s
    Channel(s)                  : 1 channel
    Channel layout              : C
    Sampling rate               : 48.0 kHz
    Frame rate                  : 31.250 FPS (1536 SPF)
    Compression mode            : Lossy
    Stream size                 : 176 MiB (1%)
    Title                       : Español Latino [CinemaniaHDD]
    Language                    : Spanish
    Service kind                : Complete Main
    Default                     : Yes
    Forced                      : Yes
    Original source medium      : Blu-ray

    Audio #2
    ID                          : 3
    ID in the original source m : 4353 (0x1101)
    Format                      : MLP FBA
    Format/Info                 : Meridian Lossless Packing FBA
    Commercial name             : Dolby TrueHD
    Codec ID                    : A_TRUEHD
    Duration                    : 2 h 8 min
    Bit rate mode               : Variable
    Bit rate                    : 1 685 kb/s
    Maximum bit rate            : 3 069 kb/s
    Channel(s)                  : 6 channels
    Channel layout              : L R C LFE Ls Rs
    Sampling rate               : 48.0 kHz
    Frame rate                  : 1 200.000 FPS (40 SPF)
    Compression mode            : Lossless
    Stream size                 : 1.51 GiB (10%)
    Title                       : Ingles [CinemaniaHDD]
    Language                    : English
    Default                     : No
    Forced                      : No
    Original source medium      : Blu-ray

    Audio #3
    ID                          : 4
    ID in the original source m : 4352 (0x1100)
    Format                      : AC-3
    Format/Info                 : Audio Coding 3
    Commercial name             : Dolby Digital
    Codec ID                    : A_AC3
    Duration                    : 2 h 8 min
    Bit rate mode               : Constant
    Bit rate                    : 640 kb/s
    Channel(s)                  : 6 channels
    Channel layout              : L R C LFE Ls Rs
    Sampling rate               : 48.0 kHz
    Frame rate                  : 31.250 FPS (1536 SPF)
    Compression mode            : Lossy
    Stream size                 : 587 MiB (4%)
    Language                    : English
    Service kind                : Complete Main
    Default                     : No
    Forced                      : No
    Original source medium      : Blu-ray

    Text #1
    ID                          : 5
    ID in the original source m : 4612 (0x1204)
    Format                      : PGS
    Muxing mode                 : zlib
    Codec ID                    : S_HDMV/PGS
    Codec ID/Info               : Picture based subtitle format used on BDs/HD-DVDs
    Duration                    : 2 h 7 min
    Bit rate                    : 37.7 kb/s
    Count of elements           : 3334
    Stream size                 : 34.5 MiB (0%)
    Title                       : Español-PGS [CinemaniaHDD]
    Language                    : Spanish
    Default                     : No
    Forced                      : No
    Original source medium      : Blu-ray

    Text #2
    ID                          : 6
    ID in the original source m : 4609 (0x1201)
    Format                      : PGS
    Muxing mode                 : zlib
    Codec ID                    : S_HDMV/PGS
    Codec ID/Info               : Picture based subtitle format used on BDs/HD-DVDs
    Duration                    : 2 h 7 min
    Bit rate                    : 38.5 kb/s
    Count of elements           : 3362
    Stream size                 : 35.1 MiB (0%)
    Title                       : Ingles [CinemaniaHDD]
    Language                    : English
    Default                     : No
    Forced                      : No
    Original source medium      : Blu-ray

    Text #3
    ID                          : 7
    Format                      : UTF-8
    Codec ID                    : S_TEXT/UTF8
    Codec ID/Info               : UTF-8 Plain Text
    Duration                    : 1 h 38 min
    Bit rate                    : 2 b/s
    Count of elements           : 34
    Stream size                 : 1.58 KiB (0%)
    Title                       : Forzados-SRT [CinemaniaHDD]
    Language                    : Spanish
    Default                     : Yes
    Forced                      : Yes

    Text #4
    ID                          : 8
    Format                      : UTF-8
    Codec ID                    : S_TEXT/UTF8
    Codec ID/Info               : UTF-8 Plain Text
    Duration                    : 2 h 7 min
    Bit rate                    : 72 b/s
    Count of elements           : 1694
    Stream size                 : 68.1 KiB (0%)
    Title                       : Español-SRT [CinemaniaHDD]
    Language                    : Spanish
    Default                     : No
    Forced                      : No

    Menu
    00:00:00.000                : Chapter 01
    00:03:55.652                : Chapter 02
    00:07:05.883                : Chapter 03
    00:10:18.159                : Chapter 04
    00:13:16.504                : Chapter 05
    00:17:54.114                : Chapter 06
    00:20:33.440                : Chapter 07
    00:23:08.470                : Chapter 08
    00:27:46.915                : Chapter 09
    00:30:26.950                : Chapter 10
    00:34:40.495                : Chapter 11
    00:37:46.597                : Chapter 12
    00:41:08.257                : Chapter 13
    00:43:51.920                : Chapter 14
    00:47:23.465                : Chapter 15
    00:49:34.930                : Chapter 16
    00:51:39.429                : Chapter 17
    00:54:11.498                : Chapter 18
    00:56:16.706                : Chapter 19
    00:59:16.094                : Chapter 20
    01:03:23.007                : Chapter 21
    01:07:30.921                : Chapter 22
    01:08:42.827                : Chapter 23
    01:10:52.289                : Chapter 24
    01:13:43.544                : Chapter 25
    01:15:36.448                : Chapter 26
    01:18:21.822                : Chapter 27
    01:22:13.428                : Chapter 28
    01:26:22.135                : Chapter 29
    01:29:15.933                : Chapter 30
    01:32:30.628                : Chapter 31
    01:33:41.032                : Chapter 32
    01:36:43.380                : Chapter 33
    01:38:43.876                : Chapter 34
    01:39:41.517                : Chapter 35
    01:41:27.664                : Chapter 36
    01:44:10.577                : Chapter 37
    01:45:41.126                : Chapter 38
    01:48:34.257                : Chapter 39
    01:51:15.293                : Chapter 40
    01:56:05.041                : Chapter 41
    01:58:07.330                : Chapter 42
    01:59:07.014                : Chapter 43
    02:00:54.622                : Chapter 44
    02:02:22.084                : Chapter 45

  • Peso: 15.8 GiB

Sinopsis

Descargar Epidemia (1995) REMUX 1080p Latino. El ejército de los Estados Unidos arrasa un campamento del Zaire en el que un virus mortal semejante al ébola estaba acabando con la población. Lo que se pretendía con esta medida era mantener el virus en secreto y, al mismo tiempo, impedir que se propagase. Lo que no estaba previsto era que un pequeño mono, portador del peligroso virus, viajara en un barco desde el Zaire a EE.UU. El pánico se desata cuando se descubre que todos los que que han estado en contacto con el simio empiezan a mostrar los primeros síntomas de la enfermedad.

Audio Español Latino AC3 1.0 Bluray – Ingles TrueHD 5.1 + AC3 5.1 Bluray

Ficha técnica

Video trailer de la película

Enlaces de descarga

Rip de Bluray

Descargar Epidemia (1995) REMUX 1080p Latino


Aportes de DPeliculasHDmega la pass es:dpeliculashdmega.org Aportes de CinemaniaHD la pass es:cinemaniahdd.com Aportes recientes:cinemaniahdd.net

Películas relacionadas

descargar Epidemia (1995) REMUX 1080p Latino Full 1080p 1080p gratis, Epidemia (1995) REMUX 1080p Latino Full 1080p mega 1 link, Epidemia (1995) REMUX 1080p Latino Full 1080p pelicula completa, descargar Epidemia (1995) REMUX 1080p Latino Full 1080p gratis en mega.

Epidemia (1995) REMUX 1080p Latino pelicula full hd, Epidemia (1995) REMUX 1080p Latino mega latino, Epidemia (1995) REMUX 1080p Latino 4k latino, Epidemia (1995) REMUX 1080p Latino pelicula completa, Epidemia (1995) REMUX 1080p Latino descargar gratis, descargar Epidemia (1995) REMUX 1080p Latino pelicula latino, Epidemia (1995) REMUX 1080p Latino 1 link mega, Epidemia (1995) REMUX 1080p Latino 1 link google drive, Epidemia (1995) REMUX 1080p Latino hd 1080p latino.
Comentarios 0