×

¿Problemas para descargar con Mozilla, EDGE? Deshabilita la opción "Abrir vinculos en una pestaña nueva" tal como lo muestra ésta imagen.

Tiempo límite (2003) REMUX 1080p Latino

343 vistas

Información de Tiempo límite (2003) REMUX 1080p Latino

Datos de la película

  • Calidad: Full 1080p
  • Audio: Español Latino AC3 2.0 BLURAY - Ingles DTS 5.1 BLURAY
  • Subtitulos: Español Latino PGS - Ingles PGS
  • Resolución: 1920x1080p
  • Formato: MKV
  • Codec: H.264
  • Encoder: CinefiloCool
  • Mediainfo: Clic para Mostrar Datos Ver
  • Tiempo Limite (2003) REMUX 1080p Latino-CMHDD.mkv
    Format                      : Matroska
    Format version              : Version 4
    File size                   : 15.9 GiB
    Duration                    : 1 h 45 min
    Overall bit rate mode       : Variable
    Overall bit rate            : 21.6 Mb/s
    Movie name                  : Out of Time (2003) CinemaniaHDD.Net
    Encoded date                : UTC 2022-05-23 06:47:04
    Writing application         : mkvmerge v56.1.0 ('My Friend') 64-bit
    Writing library             : libebml v1.4.2 + libmatroska v1.6.4
    Attachments                 : CINEMANIAHD.png

    Video
    ID                          : 1
    ID in the original source m : 4113 (0x1011)
    Format                      : MPEG Video
    Format version              : Version 2
    Format profile              : Main@High
    Format settings             : CustomMatrix / BVOP
    Format settings, BVOP       : Yes
    Format settings, Matrix     : Custom
    Format settings, GOP        : M=3, N=12
    Codec ID                    : V_MPEG2
    Codec ID/Info               : MPEG 1 or 2 Video
    Duration                    : 1 h 45 min
    Bit rate mode               : Variable
    Bit rate                    : 18.9 Mb/s
    Maximum bit rate            : 39.0 Mb/s
    Width                       : 1 920 pixels
    Height                      : 1 080 pixels
    Display aspect ratio        : 16:9
    Frame rate mode             : Constant
    Frame rate                  : 23.976 (24000/1001) FPS
    Color space                 : YUV
    Chroma subsampling          : 4:2:0
    Bit depth                   : 8 bits
    Scan type                   : Progressive
    Compression mode            : Lossy
    Bits/(Pixel*Frame)          : 0.380
    Time code of first frame    : 00:00:00:00
    Time code source            : Group of pictures header
    GOP, Open/Closed            : Open
    GOP, Open/Closed of first f : Closed
    Stream size                 : 13.9 GiB (87%)
    Title                       : REMUX HD1080p [CinemaniaHDD]
    Default                     : Yes
    Forced                      : Yes
    Original source medium      : Blu-ray

    Audio #1
    ID                          : 2
    ID in the original source m : 4354 (0x1102)
    Format                      : AC-3
    Format/Info                 : Audio Coding 3
    Commercial name             : Dolby Digital
    Format settings             : Dolby Surround
    Codec ID                    : A_AC3
    Duration                    : 1 h 45 min
    Bit rate mode               : Constant
    Bit rate                    : 224 kb/s
    Channel(s)                  : 2 channels
    Channel layout              : L R
    Sampling rate               : 48.0 kHz
    Frame rate                  : 31.250 FPS (1536 SPF)
    Compression mode            : Lossy
    Stream size                 : 169 MiB (1%)
    Title                       : Español Latino [CinemaniaHDD]
    Language                    : Spanish
    Service kind                : Complete Main
    Default                     : Yes
    Forced                      : Yes
    Original source medium      : Blu-ray

    Audio #2
    ID                          : 3
    ID in the original source m : 4352 (0x1100)
    Format                      : DTS XLL
    Format/Info                 : Digital Theater Systems
    Commercial name             : DTS-HD Master Audio
    Codec ID                    : A_DTS
    Duration                    : 1 h 45 min
    Bit rate mode               : Variable
    Bit rate                    : 2 490 kb/s
    Channel(s)                  : 6 channels
    Channel layout              : C L R Ls Rs LFE
    Sampling rate               : 48.0 kHz
    Frame rate                  : 93.750 FPS (512 SPF)
    Bit depth                   : 24 bits
    Compression mode            : Lossless
    Stream size                 : 1.83 GiB (12%)
    Title                       : Ingles [CinemaniaHDD]
    Language                    : English
    Default                     : No
    Forced                      : No
    Original source medium      : Blu-ray

    Text #1
    ID                          : 4
    ID in the original source m : 4612 (0x1204)
    Format                      : PGS
    Muxing mode                 : zlib
    Codec ID                    : S_HDMV/PGS
    Codec ID/Info               : Picture based subtitle format used on BDs/HD-DVDs
    Duration                    : 1 h 20 min
    Bit rate                    : 396 b/s
    Count of elements           : 28
    Stream size                 : 234 KiB (0%)
    Title                       : Forzados-PGS [CinemaniaHDD]
    Language                    : Spanish
    Default                     : No
    Forced                      : No
    Original source medium      : Blu-ray

    Text #2
    ID                          : 5
    ID in the original source m : 4609 (0x1201)
    Format                      : PGS
    Muxing mode                 : zlib
    Codec ID                    : S_HDMV/PGS
    Codec ID/Info               : Picture based subtitle format used on BDs/HD-DVDs
    Duration                    : 1 h 41 min
    Bit rate                    : 38.7 kb/s
    Count of elements           : 2932
    Stream size                 : 28.0 MiB (0%)
    Title                       : Español-PGS [CinemaniaHDD]
    Language                    : Spanish
    Default                     : No
    Forced                      : No
    Original source medium      : Blu-ray

    Text #3
    ID                          : 6
    ID in the original source m : 4608 (0x1200)
    Format                      : PGS
    Muxing mode                 : zlib
    Codec ID                    : S_HDMV/PGS
    Codec ID/Info               : Picture based subtitle format used on BDs/HD-DVDs
    Duration                    : 1 h 41 min
    Bit rate                    : 44.5 kb/s
    Count of elements           : 2934
    Stream size                 : 32.2 MiB (0%)
    Title                       : Ingles-PGS [CinemaniaHDD]
    Language                    : English
    Default                     : No
    Forced                      : No
    Original source medium      : Blu-ray

    Text #4
    ID                          : 7
    Format                      : UTF-8
    Codec ID                    : S_TEXT/UTF8
    Codec ID/Info               : UTF-8 Plain Text
    Duration                    : 1 h 20 min
    Bit rate                    : 0 b/s
    Count of elements           : 14
    Stream size                 : 313 Bytes (0%)
    Title                       : Forzados-SRT [CinemaniaHDD]
    Language                    : Spanish
    Default                     : Yes
    Forced                      : Yes

    Text #5
    ID                          : 8
    Format                      : UTF-8
    Codec ID                    : S_TEXT/UTF8
    Codec ID/Info               : UTF-8 Plain Text
    Duration                    : 1 h 41 min
    Bit rate                    : 60 b/s
    Count of elements           : 1136
    Stream size                 : 44.8 KiB (0%)
    Title                       : Español-SRT [CinemaniaHDD]
    Language                    : Spanish
    Default                     : No
    Forced                      : No

    Menu
    00:00:00.000                : Chapter 01
    00:02:03.873                : Chapter 02
    00:07:49.051                : Chapter 03
    00:09:09.549                : Chapter 04
    00:11:51.961                : Chapter 05
    00:14:16.689                : Chapter 06
    00:19:01.557                : Chapter 07
    00:22:24.301                : Chapter 08
    00:24:55.577                : Chapter 09
    00:26:02.102                : Chapter 10
    00:29:42.614                : Chapter 11
    00:31:33.182                : Chapter 12
    00:33:22.750                : Chapter 13
    00:35:53.109                : Chapter 14
    00:39:50.513                : Chapter 15
    00:43:46.707                : Chapter 16
    00:47:16.416                : Chapter 17
    00:49:10.489                : Chapter 18
    00:56:41.564                : Chapter 19
    00:59:48.459                : Chapter 20
    01:01:37.235                : Chapter 21
    01:06:40.413                : Chapter 22
    01:08:04.914                : Chapter 23
    01:13:21.188                : Chapter 24
    01:16:59.364                : Chapter 25
    01:20:48.301                : Chapter 26
    01:26:12.959                : Chapter 27
    01:31:11.757                : Chapter 28
    01:34:47.682                : Chapter 29
    01:38:14.054                : Chapter 30
    01:39:22.456                : Chapter 31
    01:42:38.694                : Chapter 32

  • Peso: 15.9 GiB

Sinopsis

Descargar Tiempo límite (2003) REMUX 1080p Latino. Matt Lee Whitlock (Denzel Washington), el jefe de policía de la pequeña ciudad de Banyan Key, en Florida, es apreciado por sus colegas y querido por los vecinos. Pero cuando la ciudad se ve conmocionada por un doble homicidio, se da cuenta de que debe resolver el crimen antes de que él mismo se convierta en sospechoso. Su invvestigación de los hechos deberá ir por delante de la de sus propios compañeros del cuerpo.

Disponible Solo Para VIP!!!

Ficha técnica

Video trailer de la película

Enlaces de descarga

Rip de Bluray

Descargar Tiempo límite (2003) REMUX 1080p Latino


Aportes de DPeliculasHDmega la pass es:dpeliculashdmega.org Aportes de CinemaniaHD la pass es:cinemaniahdd.com
Guardado en : Crimen , Drama , Remux , Suspenso

Películas relacionadas

descargar Tiempo límite (2003) REMUX 1080p Latino Full 1080p 1080p gratis, Tiempo límite (2003) REMUX 1080p Latino Full 1080p mega 1 link, Tiempo límite (2003) REMUX 1080p Latino Full 1080p pelicula completa, descargar Tiempo límite (2003) REMUX 1080p Latino Full 1080p gratis en mega.

Tiempo límite (2003) REMUX 1080p Latino pelicula full hd, Tiempo límite (2003) REMUX 1080p Latino mega latino, Tiempo límite (2003) REMUX 1080p Latino 4k latino, Tiempo límite (2003) REMUX 1080p Latino pelicula completa, Tiempo límite (2003) REMUX 1080p Latino descargar gratis, descargar Tiempo límite (2003) REMUX 1080p Latino pelicula latino, Tiempo límite (2003) REMUX 1080p Latino 1 link mega, Tiempo límite (2003) REMUX 1080p Latino 1 link google drive, Tiempo límite (2003) REMUX 1080p Latino hd 1080p latino.
Comentarios 0