×

¿Problemas para descargar con Mozilla, EDGE? Deshabilita la opción "Abrir vinculos en una pestaña nueva" tal como lo muestra ésta imagen.

Ouija 2: El origen del mal (2016) Full HD 1080p Latino

415 vistas

Información de Ouija 2: El origen del mal (2016) Full HD 1080p Latino

Datos de la película

  • Calidad: Full 1080p
  • Audio: Español Latino DTS 5.1 BLURAY - Ingles DTS 5.1 BLURAY
  • Subtitulos: Español Latino PGS - Ingles PGS
  • Resolución: 1920x1080p
  • Formato: MKV
  • Codec: H.264
  • Encoder: CinefiloCool
  • Mediainfo: Clic para Mostrar Datos Ver
  • Ouija - El Origen Del Mal (2016) Full HD 1080p Latino-CMHDD.mkv
    Format                      : Matroska
    Format version              : Version 4
    File size                   : 5.89 GiB
    Duration                    : 1 h 38 min
    Overall bit rate            : 8 528 kb/s
    Movie name                  : Ouija Origin Of Evil (2016) CinemaniaHDD.Net
    Encoded date                : UTC 2020-05-16 07:13:28
    Writing application         : mkvmerge v46.0.0 ('No Deeper Escape') 64-bit
    Writing library             : libebml v1.3.10 + libmatroska v1.5.2
    Attachments                 : CINEMANIAHD.png

    Video
    ID                          : 1
    Format                      : AVC
    Format/Info                 : Advanced Video Codec
    Format profile              : High@L4.1
    Format settings             : CABAC / 4 Ref Frames
    Format settings, CABAC      : Yes
    Format settings, Reference  : 4 frames
    Codec ID                    : V_MPEG4/ISO/AVC
    Duration                    : 1 h 38 min
    Bit rate                    : 6 231 kb/s
    Width                       : 1 920 pixels
    Height                      : 1 080 pixels
    Display aspect ratio        : 16:9
    Frame rate mode             : Constant
    Frame rate                  : 23.976 (24000/1001) FPS
    Color space                 : YUV
    Chroma subsampling          : 4:2:0
    Bit depth                   : 8 bits
    Scan type                   : Progressive
    Bits/(Pixel*Frame)          : 0.125
    Stream size                 : 4.30 GiB (73%)
    Title                       : Full HD1080p [CinemaniaHDD]
    Writing library             : x264 core 157 r2935 545de2f
    Encoding settings           : cabac=1 / ref=4 / deblock=1:0:0 / analyse=0x3:0x133 / me=tesa / subme=11 / psy=1 / psy_rd=1.00:0.00 / mixed_ref=1 / me_range=24 / chroma_me=1 / trellis=2 / 8x8dct=1 / cqm=0 / deadzone=21,11 / fast_pskip=0 / chroma_qp_offset=-2 / threads=24 / lookahead_threads=6 / sliced_threads=0 / nr=0 / decimate=1 / interlaced=0 / bluray_compat=0 / constrained_intra=0 / bframes=16 / b_pyramid=2 / b_adapt=2 / b_bias=0 / direct=3 / weightb=1 / open_gop=0 / weightp=2 / keyint=240 / keyint_min=24 / scenecut=40 / intra_refresh=0 / rc_lookahead=60 / rc=crf / mbtree=1 / crf=20.0 / qcomp=0.60 / qpmin=0 / qpmax=69 / qpstep=4 / vbv_maxrate=62500 / vbv_bufsize=78125 / crf_max=0.0 / nal_hrd=none / filler=0 / ip_ratio=1.40 / aq=1:1.00
    Default                     : Yes
    Forced                      : Yes
    Color range                 : Limited
    Color primaries             : BT.709
    Transfer characteristics    : BT.709
    Matrix coefficients         : BT.709

    Audio #1
    ID                          : 2
    ID in the original source m : 4353 (0x1101)
    Format                      : DTS
    Format/Info                 : Digital Theater Systems
    Codec ID                    : A_DTS
    Duration                    : 1 h 38 min
    Bit rate mode               : Constant
    Bit rate                    : 768 kb/s
    Channel(s)                  : 6 channels
    Channel layout              : C L R Ls Rs LFE
    Sampling rate               : 48.0 kHz
    Frame rate                  : 93.750 FPS (512 SPF)
    Bit depth                   : 24 bits
    Compression mode            : Lossy
    Stream size                 : 543 MiB (9%)
    Title                       : Español Latino [CinemaniaHDD]
    Language                    : Spanish
    Default                     : Yes
    Forced                      : Yes
    Original source medium      : Blu-ray

    Audio #2
    ID                          : 3
    Format                      : DTS
    Format/Info                 : Digital Theater Systems
    Codec ID                    : A_DTS
    Duration                    : 1 h 38 min
    Bit rate mode               : Constant
    Bit rate                    : 1 509 kb/s
    Channel(s)                  : 6 channels
    Channel layout              : C L R Ls Rs LFE
    Sampling rate               : 48.0 kHz
    Frame rate                  : 93.750 FPS (512 SPF)
    Bit depth                   : 24 bits
    Compression mode            : Lossy
    Stream size                 : 1.04 GiB (18%)
    Title                       : Ingles [CinemaniaHDD]
    Language                    : English
    Default                     : No
    Forced                      : No

    Text #1
    ID                          : 4
    ID in the original source m : 4611 (0x1203)
    Format                      : PGS
    Muxing mode                 : zlib
    Codec ID                    : S_HDMV/PGS
    Codec ID/Info               : Picture based subtitle format used on BDs/HD-DVDs
    Duration                    : 1 h 38 min
    Bit rate                    : 252 b/s
    Count of elements           : 22
    Stream size                 : 182 KiB (0%)
    Title                       : Forzados-PGS [CinemaniaHDD]
    Language                    : Spanish
    Default                     : Yes
    Forced                      : Yes
    Original source medium      : Blu-ray

    Text #2
    ID                          : 5
    ID in the original source m : 4609 (0x1201)
    Format                      : PGS
    Muxing mode                 : zlib
    Codec ID                    : S_HDMV/PGS
    Codec ID/Info               : Picture based subtitle format used on BDs/HD-DVDs
    Duration                    : 1 h 38 min
    Bit rate                    : 24.8 kb/s
    Count of elements           : 2267
    Stream size                 : 17.5 MiB (0%)
    Title                       : Español-PGS [CinemaniaHDD]
    Language                    : Spanish
    Default                     : No
    Forced                      : No
    Original source medium      : Blu-ray

    Text #3
    ID                          : 6
    ID in the original source m : 4608 (0x1200)
    Format                      : PGS
    Muxing mode                 : zlib
    Codec ID                    : S_HDMV/PGS
    Codec ID/Info               : Picture based subtitle format used on BDs/HD-DVDs
    Duration                    : 1 h 38 min
    Bit rate                    : 29.1 kb/s
    Count of elements           : 2324
    Stream size                 : 20.4 MiB (0%)
    Title                       : Ingles-PGS [CinemaniaHDD]
    Language                    : English
    Default                     : No
    Forced                      : No
    Original source medium      : Blu-ray

    Text #4
    ID                          : 7
    Format                      : UTF-8
    Codec ID                    : S_TEXT/UTF8
    Codec ID/Info               : UTF-8 Plain Text
    Duration                    : 1 h 31 min
    Bit rate                    : 0 b/s
    Count of elements           : 15
    Stream size                 : 228 Bytes (0%)
    Title                       : Forzados-SRT [CinemaniaHDD]
    Language                    : Spanish
    Default                     : No
    Forced                      : No

    Text #5
    ID                          : 8
    Format                      : UTF-8
    Codec ID                    : S_TEXT/UTF8
    Codec ID/Info               : UTF-8 Plain Text
    Duration                    : 1 h 38 min
    Bit rate                    : 38 b/s
    Count of elements           : 1133
    Stream size                 : 28.0 KiB (0%)
    Title                       : Español-SRT [CinemaniaHDD]
    Language                    : Spanish
    Default                     : No
    Forced                      : No

    Menu
    00:00:00.000                : en:Chapter 01
    00:05:30.747                : en:Chapter 02
    00:09:12.468                : en:Chapter 03
    00:14:19.525                : en:Chapter 04
    00:21:37.879                : en:Chapter 05
    00:25:24.314                : en:Chapter 06
    00:30:09.849                : en:Chapter 07
    00:35:53.317                : en:Chapter 08
    00:39:04.383                : en:Chapter 09
    00:43:53.464                : en:Chapter 10
    00:48:49.676                : en:Chapter 11
    00:55:11.683                : en:Chapter 12
    00:58:47.607                : en:Chapter 13
    01:05:27.715                : en:Chapter 14
    01:10:46.283                : en:Chapter 15
    01:14:26.420                : en:Chapter 16
    01:18:25.075                : en:Chapter 17
    01:21:48.403                : en:Chapter 18
    01:27:42.840                : en:Chapter 19
    01:31:03.291                : en:Chapter 20

  • Peso: 5.89 GiB

Sinopsis

Descargar Ouija 2: El origen del mal (2016) Full HD 1080p Latino. En Ouija: El origen del mal, la secuela del éxito inesperado del 2014, un grupo de ilusos amigos debe confrontar sus más terribles miedos cuando desatan un mal del más allá que sólo ellos pueden mandar de regreso. El siguiente capítulo del thriller supernatural, inspirado por el antiguo tablero de los espíritus, es producida de nuevo por el equipo de Platinum Dunes, Michael Bay, Brad Fuller y Andrew Form (La masacre de Texas, la saga The Purge , Las tortugas ninja)y Blumhouse Productions de Jason Blum (The Purge- La noche de las bestias y La noche del domonio), junto con Brian Goldner de Hasbro (Transformers y G.I. Joe), Mike Flanagan y Jeff Howard (Oculus) escribieron el guión y Universal distribuirá la película internacionalmente. (Título original – Ouija: Origin of Evil) – 2016 Universal Studios. All Rights Reserved.

Ficha técnica

Video trailer de la película

Enlaces de descarga

Rip de Bluray

Descargar Ouija 2: El origen del mal (2016) Full HD 1080p Latino




Aportes de DPeliculasHDmega la pass es:dpeliculashdmega.org Aportes de CinemaniaHD la pass es:cinemaniahdd.com

Películas relacionadas

  • Wire Room (2022) HD 1080p Latino

    Wire Room (2022) HD 1080p Latino

    2022
    Wire Room (2022) HD 1080p Latino

    1h 37m 2022

    Descargar Wire Room (2022) HD 1080p Latino. Mientras está de servicio en la sala de cables, un agente...

    Director: Matt Eskandari

    Género: Acción

    Actores: Texas Battle

  • Wire Room (2022) PLACEBO Full HD 1080p Latino

    Wire Room (2022) PLACEBO Full HD 1080p Latino

    2022
    Wire Room (2022) PLACEBO Full HD 1080p Latino

    1h 37m 2022

    Descargar Wire Room (2022) PLACEBO Full HD 1080p Latino. Mientras está de servicio en la sala de cables,...

    Director: Matt Eskandari

    Género: Acción

    Actores: Texas Battle

  • Wire Room (2022) REMUX 1080p Latino

    Wire Room (2022) REMUX 1080p Latino

    2022
    Wire Room (2022) REMUX 1080p Latino

    1h 37m 2022

    Descargar Wire Room (2022) REMUX 1080p Latino. Mientras está de servicio en la sala de cables, un agente...

    Director: Matt Eskandari

    Género: Acción

    Actores: Texas Battle

  • Alarido (2022) HD 1080p Latino

    Alarido (2022) HD 1080p Latino

    2022
    Alarido (2022) HD 1080p Latino

    1h 29m 2022

    Descargar Alarido (2022) HD 1080p Latino. Una joven madre soltera es cautiva junto con sus dos hijos...

    Director: D.J. Caruso

    Género: HD 1080p

    Actores: Vincent Gallo

descargar Ouija 2: El origen del mal (2016) Full HD 1080p Latino Full 1080p 1080p gratis, Ouija 2: El origen del mal (2016) Full HD 1080p Latino Full 1080p mega 1 link, Ouija 2: El origen del mal (2016) Full HD 1080p Latino Full 1080p pelicula completa, descargar Ouija 2: El origen del mal (2016) Full HD 1080p Latino Full 1080p gratis en mega.

Ouija 2: El origen del mal (2016) Full HD 1080p Latino pelicula full hd, Ouija 2: El origen del mal (2016) Full HD 1080p Latino mega latino, Ouija 2: El origen del mal (2016) Full HD 1080p Latino 4k latino, Ouija 2: El origen del mal (2016) Full HD 1080p Latino pelicula completa, Ouija 2: El origen del mal (2016) Full HD 1080p Latino descargar gratis, descargar Ouija 2: El origen del mal (2016) Full HD 1080p Latino pelicula latino, Ouija 2: El origen del mal (2016) Full HD 1080p Latino 1 link mega, Ouija 2: El origen del mal (2016) Full HD 1080p Latino 1 link google drive, Ouija 2: El origen del mal (2016) Full HD 1080p Latino hd 1080p latino.
Comentarios 0