×

¿Problemas para descargar con Mozilla, EDGE? Deshabilita la opción "Abrir vinculos en una pestaña nueva" tal como lo muestra ésta imagen.

Ouija (2014) REMUX 1080p Latino

376 vistas

Información de Ouija (2014) REMUX 1080p Latino

Datos de la película

  • Calidad: Full 1080p
  • Audio: Español Latino DTS 5.1 BLURAY - Ingles DTS-HD 5.1 BLURAY
  • Subtitulos: Español Latino PGS - Ingles PGS
  • Resolución: 1920x1080p
  • Formato: MKV
  • Codec: H.264
  • Encoder: CinefiloCool
  • Mediainfo: Clic para Mostrar Datos Ver
  • Ouija (2014) REMUX 1080p Latino-CMHDD.mkv
    Format                      : Matroska
    Format version              : Version 4
    File size                   : 22.3 GiB
    Duration                    : 1 h 29 min
    Overall bit rate mode       : Variable
    Overall bit rate            : 35.6 Mb/s
    Movie name                  : Ouija (2014) CinemaniaHDD.Net
    Encoded date                : UTC 2020-05-13 04:27:25
    Writing application         : mkvmerge v46.0.0 ('No Deeper Escape') 64-bit
    Writing library             : libebml v1.3.10 + libmatroska v1.5.2
    Attachments                 : CINEMANIAHD.png

    Video
    ID                          : 1
    ID in the original source m : 4113 (0x1011)
    Format                      : AVC
    Format/Info                 : Advanced Video Codec
    Format profile              : High@L4.1
    Format settings             : CABAC / 4 Ref Frames
    Format settings, CABAC      : Yes
    Format settings, Reference  : 4 frames
    Codec ID                    : V_MPEG4/ISO/AVC
    Duration                    : 1 h 29 min
    Bit rate mode               : Variable
    Bit rate                    : 31.2 Mb/s
    Maximum bit rate            : 34.0 Mb/s
    Width                       : 1 920 pixels
    Height                      : 1 080 pixels
    Display aspect ratio        : 16:9
    Frame rate mode             : Constant
    Frame rate                  : 23.976 (24000/1001) FPS
    Color space                 : YUV
    Chroma subsampling          : 4:2:0
    Bit depth                   : 8 bits
    Scan type                   : Progressive
    Bits/(Pixel*Frame)          : 0.628
    Stream size                 : 19.5 GiB (88%)
    Title                       : REMUX 1080p [CinemaniaHDD]
    Default                     : Yes
    Forced                      : No
    Original source medium      : Blu-ray

    Audio #1
    ID                          : 2
    ID in the original source m : 4356 (0x1104)
    Format                      : DTS
    Format/Info                 : Digital Theater Systems
    Codec ID                    : A_DTS
    Duration                    : 1 h 29 min
    Bit rate mode               : Constant
    Bit rate                    : 768 kb/s
    Channel(s)                  : 6 channels
    Channel layout              : C L R Ls Rs LFE
    Sampling rate               : 48.0 kHz
    Frame rate                  : 93.750 FPS (512 SPF)
    Bit depth                   : 24 bits
    Compression mode            : Lossy
    Stream size                 : 491 MiB (2%)
    Title                       : Español Latino [CinemaniaHDD]
    Language                    : Spanish
    Default                     : Yes
    Forced                      : No
    Original source medium      : Blu-ray

    Audio #2
    ID                          : 3
    ID in the original source m : 4352 (0x1100)
    Format                      : DTS XLL
    Format/Info                 : Digital Theater Systems
    Commercial name             : DTS-HD Master Audio
    Codec ID                    : A_DTS
    Duration                    : 1 h 29 min
    Bit rate mode               : Variable
    Bit rate                    : 3 622 kb/s
    Channel(s)                  : 6 channels
    Channel layout              : C L R Ls Rs LFE
    Sampling rate               : 48.0 kHz
    Frame rate                  : 93.750 FPS (512 SPF)
    Bit depth                   : 24 bits
    Compression mode            : Lossless
    Stream size                 : 2.26 GiB (10%)
    Title                       : Ingles [CinemaniaHDD]
    Language                    : English
    Default                     : No
    Forced                      : No
    Original source medium      : Blu-ray

    Text #1
    ID                          : 4
    ID in the original source m : 4634 (0x121A)
    Format                      : PGS
    Muxing mode                 : zlib
    Codec ID                    : S_HDMV/PGS
    Codec ID/Info               : Picture based subtitle format used on BDs/HD-DVDs
    Duration                    : 1 h 24 min
    Bit rate                    : 243 b/s
    Count of elements           : 30
    Stream size                 : 151 KiB (0%)
    Title                       : Forzados-PGS [CinemaniaHDD]
    Language                    : Spanish
    Default                     : Yes
    Forced                      : No
    Original source medium      : Blu-ray

    Text #2
    ID                          : 5
    ID in the original source m : 4612 (0x1204)
    Format                      : PGS
    Muxing mode                 : zlib
    Codec ID                    : S_HDMV/PGS
    Codec ID/Info               : Picture based subtitle format used on BDs/HD-DVDs
    Duration                    : 1 h 24 min
    Bit rate                    : 21.2 kb/s
    Count of elements           : 1634
    Stream size                 : 12.8 MiB (0%)
    Title                       : Español-PGS [CinemaniaHDD]
    Language                    : Spanish
    Default                     : No
    Forced                      : No
    Original source medium      : Blu-ray

    Text #3
    ID                          : 6
    ID in the original source m : 4608 (0x1200)
    Format                      : PGS
    Muxing mode                 : zlib
    Codec ID                    : S_HDMV/PGS
    Codec ID/Info               : Picture based subtitle format used on BDs/HD-DVDs
    Duration                    : 1 h 22 min
    Bit rate                    : 29.2 kb/s
    Count of elements           : 1958
    Stream size                 : 17.2 MiB (0%)
    Title                       : Ingles-PGS [CinemaniaHDD]
    Language                    : English
    Default                     : No
    Forced                      : No
    Original source medium      : Blu-ray

    Text #4
    ID                          : 7
    Format                      : UTF-8
    Codec ID                    : S_TEXT/UTF8
    Codec ID/Info               : UTF-8 Plain Text
    Duration                    : 1 h 24 min
    Bit rate                    : 0 b/s
    Count of elements           : 15
    Stream size                 : 187 Bytes (0%)
    Title                       : Forzados-SRT [CinemaniaHDD]
    Language                    : Spanish
    Default                     : No
    Forced                      : No

    Text #5
    ID                          : 8
    Format                      : UTF-8
    Codec ID                    : S_TEXT/UTF8
    Codec ID/Info               : UTF-8 Plain Text
    Duration                    : 1 h 24 min
    Bit rate                    : 37 b/s
    Count of elements           : 751
    Stream size                 : 23.0 KiB (0%)
    Title                       : Español-SRT [CinemaniaHDD]
    Language                    : Spanish
    Default                     : No
    Forced                      : No

    Menu
    00:00:00.000                : en:Chapter 01
    00:05:22.822                : en:Chapter 02
    00:09:30.361                : en:Chapter 03
    00:11:55.673                : en:Chapter 04
    00:16:27.152                : en:Chapter 05
    00:18:56.802                : en:Chapter 06
    00:24:13.827                : en:Chapter 07
    00:26:07.357                : en:Chapter 08
    00:32:09.344                : en:Chapter 09
    00:36:52.126                : en:Chapter 10
    00:41:43.125                : en:Chapter 11
    00:44:13.942                : en:Chapter 12
    00:50:08.463                : en:Chapter 13
    00:55:04.009                : en:Chapter 14
    01:00:28.625                : en:Chapter 15
    01:05:12.199                : en:Chapter 16
    01:10:02.948                : en:Chapter 17
    01:14:18.495                : en:Chapter 18
    01:20:20.440                : en:Chapter 19
    01:22:46.461                : en:Chapter 20

  • Peso: 22.3 GiB

Sinopsis

Descargar Ouija (2014) REMUX 1080p Latino. Después de que uno de sus amigos sea brutalmente asesinado por un malvado ente oscuro, un grupo de amigos juega a la ouija para intentar hablar con él desde el más allá. Sin embargo, lo que consiguen es despertar a un antiguo espíritu y a los demonios más salvajes. Los chicos tendrán que hacer frente a sus miedos más profundos e intentar acabar con ellos. Han descubierto que la ouija no es un juego de niños, es algo mucho más real.

Ficha técnica

Video trailer de la película

Enlaces de descarga

Rip de Bluray

Descargar Ouija (2014) REMUX 1080p Latino




Aportes de DPeliculasHDmega la pass es:dpeliculashdmega.org Aportes de CinemaniaHD la pass es:cinemaniahdd.com
Guardado en : Remux , Terror

Películas relacionadas

descargar Ouija (2014) REMUX 1080p Latino Full 1080p 1080p gratis, Ouija (2014) REMUX 1080p Latino Full 1080p mega 1 link, Ouija (2014) REMUX 1080p Latino Full 1080p pelicula completa, descargar Ouija (2014) REMUX 1080p Latino Full 1080p gratis en mega.

Ouija (2014) REMUX 1080p Latino pelicula full hd, Ouija (2014) REMUX 1080p Latino mega latino, Ouija (2014) REMUX 1080p Latino 4k latino, Ouija (2014) REMUX 1080p Latino pelicula completa, Ouija (2014) REMUX 1080p Latino descargar gratis, descargar Ouija (2014) REMUX 1080p Latino pelicula latino, Ouija (2014) REMUX 1080p Latino 1 link mega, Ouija (2014) REMUX 1080p Latino 1 link google drive, Ouija (2014) REMUX 1080p Latino hd 1080p latino.
Comentarios 1
  • ocpgaiden - 02 junio, 2020

    Gracias por la Ouija Remux, saludos