×

¿Problemas para descargar con Mozilla, EDGE? Deshabilita la opción "Abrir vinculos en una pestaña nueva" tal como lo muestra ésta imagen.

Ouija (2014) OPEN MATTE HMAX WEB-DL 1080p Latino

311 vistas

Información de Ouija (2014) OPEN MATTE HMAX WEB-DL 1080p Latino

Datos de la película

  • Calidad: WEBDL
  • Audio: Español Latino AC3 2.0 WEB-DL - Ingles AC3 2.0 WEB-DL
  • Subtitulos: Español Latino SRT- FORZADOS SRT
  • Resolución: 1920x1080p
  • Formato: MKV
  • Codec: H.264
  • Encoder: CinemaniaHDD
  • Mediainfo: Clic para Mostrar Datos Ver
  • Ouija (2014) OPEN MATTE HMAX Web-DL 1080p Latino.mkv
    Format                      : Matroska
    Format version              : Version 4
    File size                   : 5.26 GiB
    Duration                    : 1 h 24 min
    Overall bit rate mode       : Variable
    Overall bit rate            : 8 890 kb/s
    Movie name                  : Ouija (2014) CinemaniaHDD.Net
    Encoded date                : UTC 2022-09-19 04:35:22
    Writing application         : mkvmerge v56.1.0 ('My Friend') 64-bit
    Writing library             : libebml v1.4.2 + libmatroska v1.6.4
    Attachments                 : CINEMANIAHD.png

    Video
    ID                          : 1
    Format                      : AVC
    Format/Info                 : Advanced Video Codec
    Format profile              : High@L4
    Format settings             : CABAC / 4 Ref Frames
    Format settings, CABAC      : Yes
    Format settings, Reference  : 4 frames
    Codec ID                    : V_MPEG4/ISO/AVC
    Duration                    : 1 h 23 min
    Bit rate mode               : Variable
    Bit rate                    : 8 250 kb/s
    Maximum bit rate            : 12.4 Mb/s
    Width                       : 1 920 pixels
    Height                      : 1 080 pixels
    Display aspect ratio        : 16:9
    Frame rate mode             : Constant
    Frame rate                  : 29.970 (30000/1001) FPS
    Color space                 : YUV
    Chroma subsampling          : 4:2:0
    Bit depth                   : 8 bits
    Scan type                   : Progressive
    Bits/(Pixel*Frame)          : 0.133
    Stream size                 : 4.81 GiB (91%)
    Title                       : Web HD1080p [CinemaniaHDD]
    Writing library             : x264 core 157 r2965 861cec4
    Encoding settings           : cabac=1 / ref=4 / deblock=1:0:0 / analyse=0x3:0x113 / me=hex / subme=7 / psy=1 / psy_rd=1.00:0.00 / mixed_ref=1 / me_range=16 / chroma_me=1 / trellis=1 / 8x8dct=1 / cqm=0 / deadzone=21,11 / fast_pskip=1 / chroma_qp_offset=-2 / threads=34 / lookahead_threads=5 / sliced_threads=0 / nr=0 / decimate=1 / interlaced=0 / bluray_compat=0 / constrained_intra=0 / bframes=3 / b_pyramid=2 / b_adapt=1 / b_bias=0 / direct=1 / weightb=1 / open_gop=0 / weightp=2 / keyint=120 / keyint_min=120 / scenecut=40 / intra_refresh=0 / rc_lookahead=40 / rc=2pass / mbtree=1 / bitrate=8250 / ratetol=1.0 / qcomp=0.60 / qpmin=0 / qpmax=69 / qpstep=4 / cplxblur=20.0 / qblur=0.5 / vbv_maxrate=12375 / vbv_bufsize=6187 / nal_hrd=vbr / filler=0 / ip_ratio=1.40 / aq=1:1.00
    Language                    : English
    Default                     : Yes
    Forced                      : Yes
    Color range                 : Limited
    Color primaries             : BT.709
    Transfer characteristics    : BT.709
    Matrix coefficients         : BT.709

    Audio #1
    ID                          : 2
    Format                      : AC-3
    Format/Info                 : Audio Coding 3
    Commercial name             : Dolby Digital
    Codec ID                    : A_AC3
    Duration                    : 1 h 23 min
    Bit rate mode               : Constant
    Bit rate                    : 384 kb/s
    Channel(s)                  : 2 channels
    Channel layout              : L R
    Sampling rate               : 48.0 kHz
    Frame rate                  : 31.250 FPS (1536 SPF)
    Compression mode            : Lossy
    Stream size                 : 229 MiB (4%)
    Title                       : Español Latino [CinemaniaHDD]
    Language                    : Spanish
    Service kind                : Complete Main
    Default                     : Yes
    Forced                      : Yes

    Audio #2
    ID                          : 3
    Format                      : AC-3
    Format/Info                 : Audio Coding 3
    Commercial name             : Dolby Digital
    Codec ID                    : A_AC3
    Duration                    : 1 h 23 min
    Bit rate mode               : Constant
    Bit rate                    : 384 kb/s
    Channel(s)                  : 2 channels
    Channel layout              : L R
    Sampling rate               : 48.0 kHz
    Frame rate                  : 31.250 FPS (1536 SPF)
    Compression mode            : Lossy
    Stream size                 : 229 MiB (4%)
    Title                       : Ingles [CinemaniaHDD]
    Language                    : English
    Service kind                : Complete Main
    Default                     : No
    Forced                      : No

    Text #1
    ID                          : 4
    Format                      : UTF-8
    Codec ID                    : S_TEXT/UTF8
    Codec ID/Info               : UTF-8 Plain Text
    Duration                    : 1 h 24 min
    Bit rate                    : 0 b/s
    Count of elements           : 24
    Stream size                 : 292 Bytes (0%)
    Title                       : Forzados-SRT [CinemaniaHDD]
    Language                    : Spanish
    Default                     : Yes
    Forced                      : Yes

    Text #2
    ID                          : 5
    Format                      : UTF-8
    Codec ID                    : S_TEXT/UTF8
    Codec ID/Info               : UTF-8 Plain Text
    Duration                    : 1 h 24 min
    Bit rate                    : 33 b/s
    Count of elements           : 807
    Stream size                 : 20.6 KiB (0%)
    Title                       : Español-SRT [CinemaniaHDD]
    Language                    : Spanish
    Default                     : No
    Forced                      : No

  • Peso: 5.26 GiB

Sinopsis

Descargar Ouija (2014) OPEN MATTE HMAX WEB-DL 1080p Latino. Después de que uno de sus amigos sea brutalmente asesinado por un malvado ente oscuro, un grupo de amigos juega a la ouija para intentar hablar con él desde el más allá. Sin embargo, lo que consiguen es despertar a un antiguo espíritu y a los demonios más salvajes. Los chicos tendrán que hacer frente a sus miedos más profundos e intentar acabar con ellos. Han descubierto que la ouija no es un juego de niños, es algo mucho más real.

Ficha técnica

Video trailer de la película

Enlaces de descarga

Rip de Bluray

Descargar Ouija (2014) OPEN MATTE HMAX WEB-DL 1080p Latino




Aportes de DPeliculasHDmega la pass es:dpeliculashdmega.org Aportes de CinemaniaHD la pass es:cinemaniahdd.com Aportes recientes:cinemaniahdd.net
Guardado en : OPEN MATTE , Terror

Películas relacionadas

  • Squealer (2023) PCOK WEB-DL 1080p Latino

    Squealer (2023) PCOK WEB-DL 1080p Latino

    2023
    Squealer (2023) PCOK WEB-DL 1080p Latino

    1h 39m 2023

    Un policía local y una trabajadora social, siguen las pistas sobre los casos de personas desaparecidas...

    Director: Andy Armstrong

    Género: Suspenso

    Actores: Wes Chatham

  • Regresión (2015) 1080p Latino-CMHDD

    Regresión (2015) 1080p Latino-CMHDD

    2015
    Regresión (2015) 1080p Latino-CMHDD

    1h 46m 2015

    Descargar Regresión (2015) 1080p Latino-CMHDD. Minnesota, 1990. El detective Bruce Kenner (Ethan Hawke)...

    Director: Winnifred Jong

    Género: HD 1080p

    Actores: Wendy Lyon

descargar Ouija (2014) OPEN MATTE HMAX WEB-DL 1080p Latino WEBDL 1080p gratis, Ouija (2014) OPEN MATTE HMAX WEB-DL 1080p Latino WEBDL mega 1 link, Ouija (2014) OPEN MATTE HMAX WEB-DL 1080p Latino WEBDL pelicula completa, descargar Ouija (2014) OPEN MATTE HMAX WEB-DL 1080p Latino WEBDL gratis en mega.

Ouija (2014) OPEN MATTE HMAX WEB-DL 1080p Latino pelicula full hd, Ouija (2014) OPEN MATTE HMAX WEB-DL 1080p Latino mega latino, Ouija (2014) OPEN MATTE HMAX WEB-DL 1080p Latino 4k latino, Ouija (2014) OPEN MATTE HMAX WEB-DL 1080p Latino pelicula completa, Ouija (2014) OPEN MATTE HMAX WEB-DL 1080p Latino descargar gratis, descargar Ouija (2014) OPEN MATTE HMAX WEB-DL 1080p Latino pelicula latino, Ouija (2014) OPEN MATTE HMAX WEB-DL 1080p Latino 1 link mega, Ouija (2014) OPEN MATTE HMAX WEB-DL 1080p Latino 1 link google drive, Ouija (2014) OPEN MATTE HMAX WEB-DL 1080p Latino hd 1080p latino.
Comentarios 0