×

¿Problemas para descargar con Mozilla, EDGE? Deshabilita la opción "Abrir vinculos en una pestaña nueva" tal como lo muestra ésta imagen.

Oso intoxicado (2023) AMZN WEB-DL 1080p Latino

331 vistas

Información de Oso intoxicado (2023) AMZN WEB-DL 1080p Latino

Datos de la película

  • Calidad: WEBDL
  • Audio: Español Latino AC3 5.1 WEB-DL - Ingles AC3 5.1 WEB-DL
  • Subtitulos: Español Latino SRT- FORZADOS SRT
  • Resolución: 1920x800p
  • Formato: MKV
  • Codec: H.264
  • Encoder: Melkor
  • Mediainfo: Clic para Mostrar Datos Ver
  • Oso intoxicado (2023) AMZN WebDL 1080p Latino.mkv
    Format                      : Matroska
    Format version              : Version 4
    File size                   : 5.19 GiB
    Duration                    : 1 h 35 min
    Overall bit rate            : 7 755 kb/s
    Movie name                  : Cocaine Bear (2023) CinemaniaHDD.Net
    Encoded date                : UTC 2023-03-15 02:44:26
    Writing application         : mkvmerge v56.1.0 ('My Friend') 64-bit
    Writing library             : libebml v1.4.2 + libmatroska v1.6.4
    Attachments                 : CINEMANIAHD.png
    Site                        : CinemaniaHDD.Net
    Uploader                    : Melkor

    Video
    ID                          : 1
    Format                      : AVC
    Format/Info                 : Advanced Video Codec
    Format profile              : High@L4
    Format settings             : CABAC / 4 Ref Frames
    Format settings, CABAC      : Yes
    Format settings, Reference  : 4 frames
    Codec ID                    : V_MPEG4/ISO/AVC
    Duration                    : 1 h 35 min
    Bit rate mode               : Constant
    Bit rate                    : 6 729 kb/s
    Nominal bit rate            : 10 000 kb/s
    Width                       : 1 920 pixels
    Height                      : 800 pixels
    Display aspect ratio        : 2.40:1
    Frame rate mode             : Constant
    Frame rate                  : 23.976 (24000/1001) FPS
    Color space                 : YUV
    Chroma subsampling          : 4:2:0
    Bit depth                   : 8 bits
    Scan type                   : Progressive
    Bits/(Pixel*Frame)          : 0.183
    Stream size                 : 4.50 GiB (87%)
    Title                       : Web HD1080p [CinemaniaHDD]
    Language                    : English
    Default                     : Yes
    Forced                      : Yes
    Color range                 : Limited
    Color primaries             : BT.709
    Transfer characteristics    : BT.709
    Matrix coefficients         : BT.709

    Audio #1
    ID                          : 2
    Format                      : AC-3
    Format/Info                 : Audio Coding 3
    Commercial name             : Dolby Digital
    Codec ID                    : A_AC3
    Duration                    : 1 h 35 min
    Bit rate mode               : Constant
    Bit rate                    : 384 kb/s
    Channel(s)                  : 6 channels
    Channel layout              : L R C LFE Ls Rs
    Sampling rate               : 48.0 kHz
    Frame rate                  : 31.250 FPS (1536 SPF)
    Compression mode            : Lossy
    Delay relative to video     : 157 ms
    Stream size                 : 262 MiB (5%)
    Title                       : Español Latino [CinemaniaHDD]
    Language                    : Spanish
    Service kind                : Complete Main
    Default                     : Yes
    Forced                      : Yes

    Audio #2
    ID                          : 3
    Format                      : E-AC-3
    Format/Info                 : Enhanced AC-3
    Commercial name             : Dolby Digital Plus
    Codec ID                    : A_EAC3
    Duration                    : 1 h 35 min
    Bit rate mode               : Constant
    Bit rate                    : 640 kb/s
    Channel(s)                  : 6 channels
    Channel layout              : L R C LFE Ls Rs
    Sampling rate               : 48.0 kHz
    Frame rate                  : 31.250 FPS (1536 SPF)
    Compression mode            : Lossy
    Stream size                 : 439 MiB (8%)
    Title                       : Ingles [CinemaniaHDD]
    Language                    : English
    Service kind                : Complete Main
    Default                     : No
    Forced                      : No

    Text #1
    ID                          : 4
    Format                      : UTF-8
    Codec ID                    : S_TEXT/UTF8
    Codec ID/Info               : UTF-8 Plain Text
    Duration                    : 1 h 28 min
    Bit rate                    : 1 b/s
    Count of elements           : 38
    Stream size                 : 1.22 KiB (0%)
    Title                       : Forzados-SRT [CinemaniaHDD]
    Language                    : Spanish
    Default                     : Yes
    Forced                      : Yes

    Text #2
    ID                          : 5
    Format                      : UTF-8
    Codec ID                    : S_TEXT/UTF8
    Codec ID/Info               : UTF-8 Plain Text
    Duration                    : 1 h 34 min
    Bit rate                    : 51 b/s
    Count of elements           : 1346
    Stream size                 : 35.9 KiB (0%)
    Title                       : Español-SRT [CinemaniaHDD]
    Language                    : Spanish
    Default                     : No
    Forced                      : No

    Text #3
    ID                          : 6
    Format                      : UTF-8
    Codec ID                    : S_TEXT/UTF8
    Codec ID/Info               : UTF-8 Plain Text
    Duration                    : 1 h 30 min
    Bit rate                    : 58 b/s
    Count of elements           : 1585
    Stream size                 : 39.3 KiB (0%)
    Title                       : Ingles-SRT [CinemaniaHDD]
    Language                    : English
    Default                     : No
    Forced                      : No

  • Peso: 5.19 GiB

Sinopsis

Descargar Oso intoxicado (2023) AMZN WEB-DL 1080p Latino. Sigue a un excéntrico grupo de policías, criminales, turistas y adolescentes en un bosque de Georgia donde un depredador de 500 kilos ha ingerido una cantidad exorbitante de cocaína. Ahora el oso está sediento de sangre, y más cocaína…

Ficha técnica

Video trailer de la película

Enlaces de descarga

Rip de Bluray

Descargar Oso intoxicado (2023) AMZN WEB-DL 1080p Latino




Aportes de DPeliculasHDmega la pass es:dpeliculashdmega.org Aportes de CinemaniaHD la pass es:cinemaniahdd.com Aportes recientes:cinemaniahdd.net
Guardado en : Comedia , Suspenso

Películas relacionadas

  • El bebé de Rosemary (1968) 1080p Latino-CMHDD

    El bebé de Rosemary (1968) 1080p Latino-CMHDD

    1968
    El bebé de Rosemary (1968) 1080p Latino-CMHDD

    2h 18m 1968

    Descargar El bebé de Rosemary (1968) 1080p Latino-CMHDD. Una joven pareja, Rosemary y Guy, se muda a...

    Director: Roman Polanski

    Género: Drama

    Actores: William Castle

  • El Contador (2016) Full HD 1080p Latino-CMHDD

    El Contador (2016) Full HD 1080p Latino-CMHDD

    2016
    El Contador (2016) Full HD 1080p Latino-CMHDD

    2h 8m 2016

    Descargar El Contador (2016) Full HD 1080p Latino-CMHDD. Christian Wolff es un contable y genio matemático,...

    Director: Lori Grabowski

    Género: Crimen

    Actores: Tait Fletcher

  • El Contador (2016) REMUX 1080p Latino-CMHDD

    El Contador (2016) REMUX 1080p Latino-CMHDD

    2016
    El Contador (2016) REMUX 1080p Latino-CMHDD

    2h 8m 2016

    Descargar El Contador (2016) REMUX 1080p Latino-CMHDD. Christian Wolff es un contable y genio matemático,...

    Director: Lori Grabowski

    Género: Crimen

    Actores: Tait Fletcher

descargar Oso intoxicado (2023) AMZN WEB-DL 1080p Latino WEBDL 1080p gratis, Oso intoxicado (2023) AMZN WEB-DL 1080p Latino WEBDL mega 1 link, Oso intoxicado (2023) AMZN WEB-DL 1080p Latino WEBDL pelicula completa, descargar Oso intoxicado (2023) AMZN WEB-DL 1080p Latino WEBDL gratis en mega.

Oso intoxicado (2023) AMZN WEB-DL 1080p Latino pelicula full hd, Oso intoxicado (2023) AMZN WEB-DL 1080p Latino mega latino, Oso intoxicado (2023) AMZN WEB-DL 1080p Latino 4k latino, Oso intoxicado (2023) AMZN WEB-DL 1080p Latino pelicula completa, Oso intoxicado (2023) AMZN WEB-DL 1080p Latino descargar gratis, descargar Oso intoxicado (2023) AMZN WEB-DL 1080p Latino pelicula latino, Oso intoxicado (2023) AMZN WEB-DL 1080p Latino 1 link mega, Oso intoxicado (2023) AMZN WEB-DL 1080p Latino 1 link google drive, Oso intoxicado (2023) AMZN WEB-DL 1080p Latino hd 1080p latino.
Comentarios 0