×

¿Problemas para descargar con Mozilla, EDGE? Deshabilita la opción "Abrir vinculos en una pestaña nueva" tal como lo muestra ésta imagen.

La huérfana (2009) REMUX 1080p Latino

158 vistas

Información de La huérfana (2009) REMUX 1080p Latino

Datos de la película

  • Calidad: Full 1080p
  • Audio: Se especifica abajo de la Sinopsis
  • Subtitulos: Español PGS - Ingles PGS
  • Resolución: 1920x1080p
  • Formato: MKV
  • Codec: H.264
  • Encoder: CinefiloCool
  • Mediainfo: Clic para Mostrar Datos Ver
  • La Huerfana (2009) REMUX 1080p Latino-CMHDD.mkv
    Format                      : Matroska
    Format version              : Version 4
    File size                   : 19.1 GiB
    Duration                    : 2 h 3 min
    Overall bit rate mode       : Variable
    Overall bit rate            : 22.2 Mb/s
    Movie name                  : Orphan (2009) CinemaniaHDD.Net
    Encoded date                : UTC 2021-09-30 21:24:57
    Writing application         : mkvmerge v56.1.0 ('My Friend') 64-bit
    Writing library             : libebml v1.4.2 + libmatroska v1.6.4
    Attachments                 : CINEMANIAHD.png

    Video
    ID                          : 1
    Format                      : VC-1
    Format profile              : Advanced@L3
    Codec ID                    : V_MS/VFW/FOURCC / WVC1
    Codec ID/Hint               : Microsoft
    Duration                    : 2 h 2 min
    Bit rate                    : 19.4 Mb/s
    Width                       : 1 920 pixels
    Height                      : 1 080 pixels
    Display aspect ratio        : 16:9
    Frame rate mode             : Constant
    Frame rate                  : 23.976 (24000/1001) FPS
    Color space                 : YUV
    Chroma subsampling          : 4:2:0
    Bit depth                   : 8 bits
    Scan type                   : Progressive
    Compression mode            : Lossy
    Bits/(Pixel*Frame)          : 0.391
    Stream size                 : 16.7 GiB (87%)
    Title                       : REMUX HD1080p [CinemaniaHDD]
    Language                    : English
    Default                     : Yes
    Forced                      : Yes

    Audio #1
    ID                          : 2
    Format                      : AC-3
    Format/Info                 : Audio Coding 3
    Commercial name             : Dolby Digital
    Codec ID                    : A_AC3
    Duration                    : 2 h 2 min
    Bit rate mode               : Constant
    Bit rate                    : 640 kb/s
    Channel(s)                  : 6 channels
    Channel layout              : L R C LFE Ls Rs
    Sampling rate               : 48.0 kHz
    Frame rate                  : 31.250 FPS (1536 SPF)
    Compression mode            : Lossy
    Stream size                 : 563 MiB (3%)
    Title                       : Español Latino [CinemaniaHDD]
    Language                    : Spanish
    Service kind                : Complete Main
    Default                     : Yes
    Forced                      : Yes

    Audio #2
    ID                          : 3
    Format                      : MLP FBA
    Format/Info                 : Meridian Lossless Packing FBA
    Commercial name             : Dolby TrueHD
    Codec ID                    : A_TRUEHD
    Duration                    : 2 h 3 min
    Bit rate mode               : Variable
    Bit rate                    : 1 433 kb/s
    Maximum bit rate            : 3 486 kb/s
    Channel(s)                  : 6 channels
    Channel layout              : L R C LFE Ls Rs
    Sampling rate               : 48.0 kHz
    Frame rate                  : 1 200.000 FPS (40 SPF)
    Compression mode            : Lossless
    Stream size                 : 1.23 GiB (6%)
    Title                       : Ingles [CinemaniaHDD]
    Language                    : English
    Default                     : No
    Forced                      : No

    Audio #3
    ID                          : 4
    Format                      : AC-3
    Format/Info                 : Audio Coding 3
    Commercial name             : Dolby Digital
    Codec ID                    : A_AC3
    Duration                    : 2 h 3 min
    Bit rate mode               : Constant
    Bit rate                    : 640 kb/s
    Channel(s)                  : 6 channels
    Channel layout              : L R C LFE Ls Rs
    Sampling rate               : 48.0 kHz
    Frame rate                  : 31.250 FPS (1536 SPF)
    Compression mode            : Lossy
    Stream size                 : 563 MiB (3%)
    Language                    : English
    Service kind                : Complete Main
    Default                     : No
    Forced                      : No

    Text #1
    ID                          : 5
    Format                      : PGS
    Muxing mode                 : zlib
    Codec ID                    : S_HDMV/PGS
    Codec ID/Info               : Picture based subtitle format used on BDs/HD-DVDs
    Duration                    : 1 h 56 min
    Bit rate                    : 930 b/s
    Count of elements           : 112
    Stream size                 : 797 KiB (0%)
    Title                       : Forzados-PGS [CinemaniaHDD]
    Language                    : Spanish
    Default                     : No
    Forced                      : No

    Text #2
    ID                          : 6
    Format                      : PGS
    Muxing mode                 : zlib
    Codec ID                    : S_HDMV/PGS
    Codec ID/Info               : Picture based subtitle format used on BDs/HD-DVDs
    Duration                    : 2 h 2 min
    Bit rate                    : 19.5 kb/s
    Count of elements           : 2190
    Stream size                 : 17.1 MiB (0%)
    Title                       : Español-PGS [CinemaniaHDD]
    Language                    : Spanish
    Default                     : No
    Forced                      : No

    Text #3
    ID                          : 7
    Format                      : PGS
    Muxing mode                 : zlib
    Codec ID                    : S_HDMV/PGS
    Codec ID/Info               : Picture based subtitle format used on BDs/HD-DVDs
    Duration                    : 2 h 2 min
    Bit rate                    : 23.3 kb/s
    Count of elements           : 2296
    Stream size                 : 20.4 MiB (0%)
    Title                       : Ingles-PGS [CinemaniaHDD]
    Language                    : English
    Default                     : No
    Forced                      : No

    Text #4
    ID                          : 8
    Format                      : UTF-8
    Codec ID                    : S_TEXT/UTF8
    Codec ID/Info               : UTF-8 Plain Text
    Duration                    : 1 h 46 min
    Bit rate                    : 1 b/s
    Count of elements           : 46
    Stream size                 : 1.14 KiB (0%)
    Title                       : Forzados-SRT [CinemaniaHDD]
    Language                    : Spanish
    Default                     : Yes
    Forced                      : Yes

    Text #5
    ID                          : 9
    Format                      : UTF-8
    Codec ID                    : S_TEXT/UTF8
    Codec ID/Info               : UTF-8 Plain Text
    Duration                    : 1 h 54 min
    Bit rate                    : 42 b/s
    Count of elements           : 1104
    Stream size                 : 36.0 KiB (0%)
    Title                       : Español-SRT [CinemaniaHDD]
    Language                    : Spanish
    Default                     : No
    Forced                      : No

    Menu
    00:00:00.000                : It's a Girl
    00:04:14.045                : Are You Okay?
    00:09:17.431                : Kate's Feelings
    00:13:22.218                : Esther's Stories
    00:19:32.379                : Her New Home
    00:23:26.947                : Wakeup Call
    00:27:10.587                : What;'s Wrong with You?
    00:30:43.132                : Prying and Primal
    00:34:25.938                : Who's Jessica?
    00:36:52.877                : One Little Dirty Word
    00:40:39.812                : Brenda Goes Down
    00:43:51.879                : Negative Vibes
    00:48:06.717                : Secrets Out
    00:50:58.055                : There She Is
    00:54:34.938                : Sister Sidetracked
    00:57:25.859                : Don't Tell or Else
    01:00:27.915                : Misled and Missing
    01:04:11.305                : No Record
    01:07:27.585                : Something Nice for Mommy
    01:11:20.359                : Grip of Guilt
    01:14:56.742                : Accident and Blame
    01:18:38.630                : Cruelest Torture
    01:22:12.969                : Burn the Evidence
    01:28:05.446                : Hospital Horror
    01:33:28.894                : Daddy's Girl
    01:38:37.953                : Dangerously Ill
    01:42:48.036                : Rampage
    01:45:29.156                : Shooting to Kill
    01:49:27.143                : The Drop on Esther
    01:52:42.380                : Ice Rage
    01:56:12.590                : End Title

  • Peso: 19.1 GiB

Sinopsis

Descargar La huérfana (2009) REMUX 1080p Latino. Cuando Kate y John Coleman pierden al bebé que estaban esperando, todo se derrumba a su alrededor. Su matrimonio se tambalea y la mente de Kate se llena de pesadillas, miedos y temores. Para intentar recuperar la normalidad, la pareja se dirige a un orfanato local con la intención de adoptar a un niño. Allí se sienten enigmáticamente atraídos por una niña de rostro angelical llamada Esther. Pero las cosas se tuercen tras la llegada de la muchacha a la casa de los Coleman, donde empiezan a ocurrir cosas extrañas. Cuando Kate empieza a darse cuenta de que Esther esconde un terrible secreto, intentará descubrir qué es, pero quizá sea demasiado tarde…

Audio Español Latino AC3 5.1 Bluray – Ingles TrueHD 5.1 + AC3 5.1 Bluray
Disponible Solo Para VIP!!! 😀

 

Ficha técnica

Video trailer de la película

Enlaces de descarga

Rip de Bluray

Descargar La huérfana (2009) REMUX 1080p Latino


Aportes de DPeliculasHDmega la pass es:dpeliculashdmega.org Aportes de CinemaniaHD la pass es:cinemaniahdd.com
Guardado en : Misterio , Remux , Suspenso , Terror

Películas relacionadas

  • La Máquina infernal (2022) WEB-DL 1080p Latino

    La Máquina infernal (2022) WEB-DL 1080p Latino

    2022
    La Máquina infernal (2022) WEB-DL 1080p Latino

    1h 47m 2022

    Descargar La Máquina infernal (2022) WEB-DL 1080p Latino. Un fan obsesivo saca de su escondite al solitario...

    Director: Andrew Hunt

    Género: Suspenso

    Actores: Rocco Salata

  • Borrego: Sal Del Camino (2022) HD 1080p Latino

    Borrego: Sal Del Camino (2022) HD 1080p Latino

    2022
    Borrego: Sal Del Camino (2022) HD 1080p Latino

    1h 42m 2022

    Descargar Borrego: Sal Del Camino (2022) HD 1080p Latino. Una joven botánica se traslada a un pequeño...

    Director: Jesse Harris

    Género: Crimen

    Actores: Olivia Trujillo

  • Borrego: Sal Del Camino (2022) REMUX 1080p Latino

    Borrego: Sal Del Camino (2022) REMUX 1080p Latino

    2022
    Borrego: Sal Del Camino (2022) REMUX 1080p Latino

    1h 42m 2022

    Descargar Borrego: Sal Del Camino (2022) REMUX 1080p Latino. Una joven botánica se traslada a un pequeño...

    Director: Jesse Harris

    Género: Crimen

    Actores: Olivia Trujillo

  • Tren Bala (2022) WEB-DL 4K UHD HDR Latino

    Tren Bala (2022) WEB-DL 4K UHD HDR Latino

    2022
    Tren Bala (2022) WEB-DL 4K UHD HDR Latino

    2h 7m 2022

    Descargar Tren Bala (2022) WEB-DL 4K UHD HDR Latino. El desafortunado asesino "Catarina" está decidido...

    Director: Paul Barry

    Género: 4K HDR

    Actores: Zooey Miyoshi

descargar La huérfana (2009) REMUX 1080p Latino Full 1080p 1080p gratis, La huérfana (2009) REMUX 1080p Latino Full 1080p mega 1 link, La huérfana (2009) REMUX 1080p Latino Full 1080p pelicula completa, descargar La huérfana (2009) REMUX 1080p Latino Full 1080p gratis en mega.

La huérfana (2009) REMUX 1080p Latino pelicula full hd, La huérfana (2009) REMUX 1080p Latino mega latino, La huérfana (2009) REMUX 1080p Latino 4k latino, La huérfana (2009) REMUX 1080p Latino pelicula completa, La huérfana (2009) REMUX 1080p Latino descargar gratis, descargar La huérfana (2009) REMUX 1080p Latino pelicula latino, La huérfana (2009) REMUX 1080p Latino 1 link mega, La huérfana (2009) REMUX 1080p Latino 1 link google drive, La huérfana (2009) REMUX 1080p Latino hd 1080p latino.
Comentarios 0