×

¿Problemas para descargar con Mozilla, EDGE? Deshabilita la opción "Abrir vinculos en una pestaña nueva" tal como lo muestra ésta imagen.

La huérfana (2009) 1080p Latino

317 vistas

Información de La huérfana (2009) 1080p Latino

Datos de la película

  • Calidad: 1080p
  • Audio: Español Latino AC3 5.1 BLURAY - Ingles AC3 5.1 BLURAY
  • Subtitulos: Español Latino SRT - Ingles SRT
  • Resolución: 1920x1080p
  • Formato: MKV
  • Codec: H.264
  • Encoder: CinefiloCool
  • Mediainfo: Clic para Mostrar Datos Ver
  • La Huerfana (2009) 1080p Latino-CMHDD.mkv
    Format                      : Matroska
    Format version              : Version 4
    File size                   : 4.80 GiB
    Duration                    : 2 h 3 min
    Overall bit rate            : 5 581 kb/s
    Movie name                  : Orphan (2009) CinemaniaHDD.Net
    Encoded date                : UTC 2022-01-09 08:17:38
    Writing application         : mkvmerge v56.1.0 ('My Friend') 64-bit
    Writing library             : libebml v1.4.2 + libmatroska v1.6.4
    Attachments                 : CINEMANIAHD.png

    Video
    ID                          : 1
    Format                      : AVC
    Format/Info                 : Advanced Video Codec
    Format profile              : High@L4.1
    Format settings             : CABAC / 4 Ref Frames
    Format settings, CABAC      : Yes
    Format settings, Reference  : 4 frames
    Codec ID                    : V_MPEG4/ISO/AVC
    Duration                    : 2 h 2 min
    Bit rate                    : 4 500 kb/s
    Width                       : 1 920 pixels
    Height                      : 1 080 pixels
    Display aspect ratio        : 16:9
    Frame rate mode             : Constant
    Frame rate                  : 23.976 (24000/1001) FPS
    Color space                 : YUV
    Chroma subsampling          : 4:2:0
    Bit depth                   : 8 bits
    Scan type                   : Progressive
    Bits/(Pixel*Frame)          : 0.091
    Stream size                 : 3.86 GiB (80%)
    Title                       : HD1080p [CinemaniaHDD]
    Writing library             : x264 core 163 r3059 b684ebe0
    Encoding settings           : cabac=1 / ref=4 / deblock=1:-1:-1 / analyse=0x3:0x133 / me=umh / subme=9 / psy=1 / psy_rd=1.00:0.15 / mixed_ref=1 / me_range=16 / chroma_me=1 / trellis=2 / 8x8dct=1 / cqm=0 / deadzone=21,11 / fast_pskip=1 / chroma_qp_offset=-3 / threads=24 / lookahead_threads=2 / sliced_threads=0 / nr=0 / decimate=1 / interlaced=0 / bluray_compat=0 / constrained_intra=0 / bframes=3 / b_pyramid=2 / b_adapt=2 / b_bias=0 / direct=3 / weightb=1 / open_gop=0 / weightp=2 / keyint=240 / keyint_min=24 / scenecut=40 / intra_refresh=0 / rc_lookahead=60 / rc=2pass / mbtree=1 / bitrate=4500 / ratetol=1.0 / qcomp=0.60 / qpmin=0 / qpmax=69 / qpstep=4 / cplxblur=20.0 / qblur=0.5 / vbv_maxrate=62500 / vbv_bufsize=78125 / nal_hrd=none / filler=0 / ip_ratio=1.40 / aq=1:1.00
    Default                     : Yes
    Forced                      : Yes
    Color range                 : Limited
    Color primaries             : BT.709
    Transfer characteristics    : BT.709
    Matrix coefficients         : BT.709

    Audio #1
    ID                          : 2
    Format                      : AC-3
    Format/Info                 : Audio Coding 3
    Commercial name             : Dolby Digital
    Codec ID                    : A_AC3
    Duration                    : 2 h 2 min
    Bit rate mode               : Constant
    Bit rate                    : 640 kb/s
    Channel(s)                  : 6 channels
    Channel layout              : L R C LFE Ls Rs
    Sampling rate               : 48.0 kHz
    Frame rate                  : 31.250 FPS (1536 SPF)
    Compression mode            : Lossy
    Delay relative to video     : -5 ms
    Stream size                 : 563 MiB (11%)
    Title                       : Español Latino [CinemaniaHDD]
    Language                    : Spanish
    Service kind                : Complete Main
    Default                     : Yes
    Forced                      : Yes

    Audio #2
    ID                          : 3
    Format                      : AC-3
    Format/Info                 : Audio Coding 3
    Commercial name             : Dolby Digital
    Codec ID                    : A_AC3
    Duration                    : 2 h 3 min
    Bit rate mode               : Constant
    Bit rate                    : 448 kb/s
    Channel(s)                  : 6 channels
    Channel layout              : L R C LFE Ls Rs
    Sampling rate               : 48.0 kHz
    Frame rate                  : 31.250 FPS (1536 SPF)
    Compression mode            : Lossy
    Delay relative to video     : -5 ms
    Stream size                 : 394 MiB (8%)
    Title                       : Ingles [CinemaniaHDD]
    Language                    : English
    Service kind                : Complete Main
    Default                     : No
    Forced                      : No

    Text #1
    ID                          : 4
    Format                      : UTF-8
    Codec ID                    : S_TEXT/UTF8
    Codec ID/Info               : UTF-8 Plain Text
    Duration                    : 1 h 46 min
    Bit rate                    : 1 b/s
    Count of elements           : 46
    Stream size                 : 1.14 KiB (0%)
    Title                       : Forzados-SRT [CinemaniaHDD]
    Language                    : Spanish
    Default                     : Yes
    Forced                      : Yes

    Text #2
    ID                          : 5
    Format                      : UTF-8
    Codec ID                    : S_TEXT/UTF8
    Codec ID/Info               : UTF-8 Plain Text
    Duration                    : 1 h 54 min
    Bit rate                    : 42 b/s
    Count of elements           : 1104
    Stream size                 : 36.0 KiB (0%)
    Title                       : Español-SRT [CinemaniaHDD]
    Language                    : Spanish
    Default                     : No
    Forced                      : No

    Text #3
    ID                          : 6
    Format                      : UTF-8
    Codec ID                    : S_TEXT/UTF8
    Codec ID/Info               : UTF-8 Plain Text
    Duration                    : 1 h 54 min
    Bit rate                    : 45 b/s
    Count of elements           : 1152
    Stream size                 : 38.5 KiB (0%)
    Title                       : Ingles-SRT [CinemaniaHDD]
    Language                    : English
    Default                     : No
    Forced                      : No

    Menu
    00:00:00.000                : It's a Girl
    00:04:14.045                : Are You Okay?
    00:09:17.431                : Kate's Feelings
    00:13:22.218                : Esther's Stories
    00:19:32.379                : Her New Home
    00:23:26.947                : Wakeup Call
    00:27:10.587                : What;'s Wrong with You?
    00:30:43.132                : Prying and Primal
    00:34:25.938                : Who's Jessica?
    00:36:52.877                : One Little Dirty Word
    00:40:39.812                : Brenda Goes Down
    00:43:51.879                : Negative Vibes
    00:48:06.717                : Secrets Out
    00:50:58.055                : There She Is
    00:54:34.938                : Sister Sidetracked
    00:57:25.859                : Don't Tell or Else
    01:00:27.915                : Misled and Missing
    01:04:11.305                : No Record
    01:07:27.585                : Something Nice for Mommy
    01:11:20.359                : Grip of Guilt
    01:14:56.742                : Accident and Blame
    01:18:38.630                : Cruelest Torture
    01:22:12.969                : Burn the Evidence
    01:28:05.446                : Hospital Horror
    01:33:28.894                : Daddy's Girl
    01:38:37.953                : Dangerously Ill
    01:42:48.036                : Rampage
    01:45:29.156                : Shooting to Kill
    01:49:27.143                : The Drop on Esther
    01:52:42.380                : Ice Rage
    01:56:12.590                : End Title

  • Peso: 4.80 GiB

Sinopsis

Descargar La huérfana (2009) 1080p Latino. Cuando Kate y John Coleman pierden al bebé que estaban esperando, todo se derrumba a su alrededor. Su matrimonio se tambalea y la mente de Kate se llena de pesadillas, miedos y temores. Para intentar recuperar la normalidad, la pareja se dirige a un orfanato local con la intención de adoptar a un niño. Allí se sienten enigmáticamente atraídos por una niña de rostro angelical llamada Esther. Pero las cosas se tuercen tras la llegada de la muchacha a la casa de los Coleman, donde empiezan a ocurrir cosas extrañas. Cuando Kate empieza a darse cuenta de que Esther esconde un terrible secreto, intentará descubrir qué es, pero quizá sea demasiado tarde…

Ficha técnica

Video trailer de la película

Enlaces de descarga

Rip de Bluray

Descargar La huérfana (2009) 1080p Latino




Aportes de DPeliculasHDmega la pass es:dpeliculashdmega.org Aportes de CinemaniaHD la pass es:cinemaniahdd.com
Guardado en : HD 1080p , Misterio , Suspenso , Terror

Películas relacionadas

  • Zola (2020) HD 1080p Latino

    Zola (2020) HD 1080p Latino

    2020
    Zola (2020) HD 1080p Latino

    1h 26m 2020

    Descargar Zola (2020) HD 1080p Latino. Una camarera accede a acompañar a una bailarina exótica, su...

    Director: Sheri Davani

    Género: Comedia

    Actores: Ts Madison

  • Hocus Pocus: Abracadabra (1993) 1080p Latino

    Hocus Pocus: Abracadabra (1993) 1080p Latino

    1993
    Hocus Pocus: Abracadabra (1993) 1080p Latino

    1h 36m 1993

    Descargar Hocus Pocus: Abracadabra (1993) 1080p Latino. Tres brujas del siglo XII son invocadas durante...

    Director: Kenny Ortega

    Género: Comedia

    Actores: Vinessa Shaw

  • Hocus Pocus: Abracadabra (1993) REMUX 1080p Latino

    Hocus Pocus: Abracadabra (1993) REMUX 1080p Latino

    1993
    Hocus Pocus: Abracadabra (1993) REMUX 1080p Latino

    1h 36m 1993

    Descargar Hocus Pocus: Abracadabra (1993) REMUX 1080p Latino. Tres brujas del siglo XII son invocadas...

    Director: Kenny Ortega

    Género: Comedia

    Actores: Vinessa Shaw

descargar La huérfana (2009) 1080p Latino 1080p 1080p gratis, La huérfana (2009) 1080p Latino 1080p mega 1 link, La huérfana (2009) 1080p Latino 1080p pelicula completa, descargar La huérfana (2009) 1080p Latino 1080p gratis en mega.

La huérfana (2009) 1080p Latino pelicula full hd, La huérfana (2009) 1080p Latino mega latino, La huérfana (2009) 1080p Latino 4k latino, La huérfana (2009) 1080p Latino pelicula completa, La huérfana (2009) 1080p Latino descargar gratis, descargar La huérfana (2009) 1080p Latino pelicula latino, La huérfana (2009) 1080p Latino 1 link mega, La huérfana (2009) 1080p Latino 1 link google drive, La huérfana (2009) 1080p Latino hd 1080p latino.
Comentarios 0