Pecado Original (2001) Full HD 1080p Latino

78 vistas
1 estrella2 estrellas3 estrellas4 estrellas5 estrellas (Ninguna valoración todavía)
Cargando...

Información de Pecado Original (2001) Full HD 1080p Latino

Datos de la película

  • Calidad: Full 1080p
  • Audio: Español Latino AC3 5.1 BLURAY - Ingles DTS 5.1 BLURAY
  • Subtitulos: Español Latino PGS - Ingles PGS
  • Resolución: 1920x1080p
  • Formato: MKV
  • Codec: H.264
  • Encoder: CinefiloCool
  • Mediainfo: Clic para Mostrar Datos Ver
  • Pecado Original (2001) Full HD 1080p Latino-CMHDD.mkv
    Format                      : Matroska
    Format version              : Version 4
    File size                   : 6.96 GiB
    Duration                    : 1 h 58 min
    Overall bit rate            : 8 413 kb/s
    Movie name                  : Original Sin (2001) CinemaniaHDD.Net
    Encoded date                : UTC 2021-02-08 04:31:42
    Writing application         : mkvmerge v51.0.0 ('I Wish') 64-bit
    Writing library             : libebml v1.4.0 + libmatroska v1.6.2
    Attachments                 : CINEMANIAHD.png

    Video
    ID                          : 1
    Format                      : AVC
    Format/Info                 : Advanced Video Codec
    Format profile              : High@L4.1
    Format settings             : CABAC / 4 Ref Frames
    Format settings, CABAC      : Yes
    Format settings, Reference  : 4 frames
    Codec ID                    : V_MPEG4/ISO/AVC
    Duration                    : 1 h 58 min
    Bit rate                    : 6 241 kb/s
    Width                       : 1 920 pixels
    Height                      : 1 080 pixels
    Display aspect ratio        : 16:9
    Frame rate mode             : Constant
    Frame rate                  : 23.976 (24000/1001) FPS
    Color space                 : YUV
    Chroma subsampling          : 4:2:0
    Bit depth                   : 8 bits
    Scan type                   : Progressive
    Bits/(Pixel*Frame)          : 0.126
    Stream size                 : 5.16 GiB (74%)
    Title                       : Full HD1080p [CinemaniaHDD]
    Writing library             : x264 core 157 r2935 545de2f
    Encoding settings           : cabac=1 / ref=4 / deblock=1:0:0 / analyse=0x3:0x133 / me=tesa / subme=11 / psy=1 / psy_rd=1.00:0.00 / mixed_ref=1 / me_range=24 / chroma_me=1 / trellis=2 / 8x8dct=1 / cqm=0 / deadzone=21,11 / fast_pskip=0 / chroma_qp_offset=-2 / threads=24 / lookahead_threads=6 / sliced_threads=0 / nr=0 / decimate=1 / interlaced=0 / bluray_compat=0 / constrained_intra=0 / bframes=16 / b_pyramid=2 / b_adapt=2 / b_bias=0 / direct=3 / weightb=1 / open_gop=0 / weightp=2 / keyint=240 / keyint_min=24 / scenecut=40 / intra_refresh=0 / rc_lookahead=60 / rc=crf / mbtree=1 / crf=20.0 / qcomp=0.60 / qpmin=0 / qpmax=69 / qpstep=4 / vbv_maxrate=62500 / vbv_bufsize=78125 / crf_max=0.0 / nal_hrd=none / filler=0 / ip_ratio=1.40 / aq=1:1.00
    Default                     : Yes
    Forced                      : Yes
    Color range                 : Limited
    Color primaries             : BT.709
    Transfer characteristics    : BT.709
    Matrix coefficients         : BT.709

    Audio #1
    ID                          : 2
    ID in the original source m : 4353 (0x1101)
    Format                      : AC-3
    Format/Info                 : Audio Coding 3
    Commercial name             : Dolby Digital
    Codec ID                    : A_AC3
    Duration                    : 1 h 58 min
    Bit rate mode               : Constant
    Bit rate                    : 640 kb/s
    Channel(s)                  : 6 channels
    Channel layout              : L R C LFE Ls Rs
    Sampling rate               : 48.0 kHz
    Frame rate                  : 31.250 FPS (1536 SPF)
    Compression mode            : Lossy
    Stream size                 : 542 MiB (8%)
    Title                       : Español Latino [CinemaniaHDD]
    Language                    : Spanish
    Service kind                : Complete Main
    Default                     : Yes
    Forced                      : Yes
    Original source medium      : Blu-ray

    Audio #2
    ID                          : 3
    Format                      : DTS
    Format/Info                 : Digital Theater Systems
    Codec ID                    : A_DTS
    Duration                    : 1 h 58 min
    Bit rate mode               : Constant
    Bit rate                    : 1 509 kb/s
    Channel(s)                  : 6 channels
    Channel layout              : C L R Ls Rs LFE
    Sampling rate               : 48.0 kHz
    Frame rate                  : 93.750 FPS (512 SPF)
    Bit depth                   : 24 bits
    Compression mode            : Lossy
    Stream size                 : 1.25 GiB (18%)
    Title                       : Ingles [CinemaniaHDD]
    Language                    : English
    Default                     : No
    Forced                      : No

    Text #1
    ID                          : 4
    ID in the original source m : 4611 (0x1203)
    Format                      : PGS
    Muxing mode                 : zlib
    Codec ID                    : S_HDMV/PGS
    Codec ID/Info               : Picture based subtitle format used on BDs/HD-DVDs
    Duration                    : 1 h 50 min
    Bit rate                    : 40 b/s
    Count of elements           : 6
    Stream size                 : 33.1 KiB (0%)
    Title                       : Forzados-PGS [CinemaniaHDD]
    Language                    : Spanish
    Default                     : Yes
    Forced                      : Yes
    Original source medium      : Blu-ray

    Text #2
    ID                          : 5
    ID in the original source m : 4609 (0x1201)
    Format                      : PGS
    Muxing mode                 : zlib
    Codec ID                    : S_HDMV/PGS
    Codec ID/Info               : Picture based subtitle format used on BDs/HD-DVDs
    Duration                    : 1 h 52 min
    Bit rate                    : 27.6 kb/s
    Count of elements           : 2388
    Stream size                 : 22.1 MiB (0%)
    Title                       : Español-PGS [CinemaniaHDD]
    Language                    : Spanish
    Default                     : No
    Forced                      : No
    Original source medium      : Blu-ray

    Text #3
    ID                          : 6
    ID in the original source m : 4608 (0x1200)
    Format                      : PGS
    Muxing mode                 : zlib
    Codec ID                    : S_HDMV/PGS
    Codec ID/Info               : Picture based subtitle format used on BDs/HD-DVDs
    Duration                    : 1 h 56 min
    Bit rate                    : 32.2 kb/s
    Count of elements           : 3056
    Stream size                 : 26.8 MiB (0%)
    Title                       : Ingles-PGS [CinemaniaHDD]
    Language                    : English
    Default                     : No
    Forced                      : No
    Original source medium      : Blu-ray

    Text #4
    ID                          : 7
    Format                      : UTF-8
    Codec ID                    : S_TEXT/UTF8
    Codec ID/Info               : UTF-8 Plain Text
    Duration                    : 1 h 50 min
    Bit rate                    : 0 b/s
    Count of elements           : 3
    Stream size                 : 37.0 Bytes (0%)
    Title                       : Forzados-SRT [CinemaniaHDD]
    Language                    : Spanish
    Default                     : No
    Forced                      : No

    Text #5
    ID                          : 8
    Format                      : UTF-8
    Codec ID                    : S_TEXT/UTF8
    Codec ID/Info               : UTF-8 Plain Text
    Duration                    : 1 h 51 min
    Bit rate                    : 41 b/s
    Count of elements           : 1178
    Stream size                 : 33.9 KiB (0%)
    Title                       : Español-SRT [CinemaniaHDD]
    Language                    : Spanish
    Default                     : No
    Forced                      : No

    Menu
    00:00:00.000                : en:Chapter 01
    00:04:58.506                : en:Chapter 02
    00:12:59.028                : en:Chapter 03
    00:19:18.490                : en:Chapter 04
    00:24:01.565                : en:Chapter 05
    00:29:08.121                : en:Chapter 06
    00:37:55.231                : en:Chapter 07
    00:47:23.549                : en:Chapter 08
    00:52:00.826                : en:Chapter 09
    01:01:30.853                : en:Chapter 10
    01:06:53.801                : en:Chapter 11
    01:16:35.424                : en:Chapter 12
    01:21:17.247                : en:Chapter 13
    01:28:55.747                : en:Chapter 14
    01:38:02.918                : en:Chapter 15
    01:48:40.472                : en:Chapter 16

  • Peso: 6.96 GiB

Sinopsis

Descargar Pecado Original (2001) Full HD 1080p Latino. En Cuba, Luis Vargas (Antonio Banderas) sostiene una relación epistolar con Julia Russell (Angelina Jolie), una atractiva americana. En principio ella es todo lo que él necesita para casarse y el hecho de que sea norteamericana, es ideal para proyectar el estatus al que él aspira. Pero un buen día Julia desaparece… con el dinero de Luis. Ahora, Luis sólo piensa en vengarse y emprende un viaje hacia el complicado pasado de Julia. Las consecuencias de esa odisea de mentiras descubiertas y pasiones encontradas son devastadoras tanto para él como para ella

Ficha técnica

Video trailer de la película

Enlaces de descarga

Rip de Bluray

Descargar Pecado Original (2001) Full HD 1080p Latino




Aportes de DPeliculasHDmega la pass es:dpeliculashdmega.org Aportes de CinemaniaHD la pass es:cinemaniahdd.com

Películas relacionadas

  • Horizon Line (2020) HD 1080p Latino

    Horizon Line (2020) HD 1080p Latino

    2020
    Horizon Line (2020) HD 1080p Latino

    0.0 1h 31m 2020

    Descargar Horizon Line (2020) HD 1080p Latino. Una pareja que viaja en un avión pequeño para asistir...

    Director: Mikael Marcimain

    Género: HD 1080p

    Actores: Pearl Mackie

  • Horizon Line (2020) PLACEBO Full HD 1080p Latino

    Horizon Line (2020) PLACEBO Full HD 1080p Latino

    2020
    Horizon Line (2020) PLACEBO Full HD 1080p Latino

    0.0 1h 31m 2020

    Descargar Horizon Line (2020) PLACEBO Full HD 1080p Latino. Una pareja que viaja en un avión pequeño...

    Director: Mikael Marcimain

    Género: FULL 1080p Plateadas

    Actores: Pearl Mackie

  • Horizon Line (2020) REMUX 1080p Latino

    Horizon Line (2020) REMUX 1080p Latino

    2020
    Horizon Line (2020) REMUX 1080p Latino

    5.0 1h 31m 2020

    Descargar Horizon Line (2020) REMUX 1080p Latino. Una pareja que viaja en un avión pequeño para asistir...

    Director: Mikael Marcimain

    Género: Remux

    Actores: Pearl Mackie

  • Sola (2020) HD 1080p Latino

    Sola (2020) HD 1080p Latino

    2020
    Sola (2020) HD 1080p Latino

    0.0 1h 40m 2020

    Descargar Sola (2020) HD 1080p Latino. Una mujer viuda que viaja sola es secuestrada por un asesino a...

    Director: John Hyams

    Género: Drama

    Actores: Shelly Lipkin

  • Sola (2020) REMUX 1080p Latino

    Sola (2020) REMUX 1080p Latino

    2020
    Sola (2020) REMUX 1080p Latino

    5.0 1h 40m 2020

    Descargar Sola (2020) REMUX 1080p Latino. Una mujer viuda que viaja sola es secuestrada por un asesino...

    Director: John Hyams

    Género: Drama

    Actores: Shelly Lipkin

Pecado Original (2001) Full HD 1080p Latino pelicula full hd, Pecado Original (2001) Full HD 1080p Latino mega latino, Pecado Original (2001) Full HD 1080p Latino 4k latino, Pecado Original (2001) Full HD 1080p Latino pelicula completa, Pecado Original (2001) Full HD 1080p Latino descargar gratis, descargar Pecado Original (2001) Full HD 1080p Latino pelicula latino, Pecado Original (2001) Full HD 1080p Latino 1 link mega, Pecado Original (2001) Full HD 1080p Latino 1 link google drive, Pecado Original (2001) Full HD 1080p Latino hd 1080p latino.
Comentarios 0