Orbita 9 (2017) Full 1080p Castellano

3.675 vistas
1 estrella2 estrellas3 estrellas4 estrellas5 estrellas (3 votos, promedio: 3,67 de 5)
Cargando…

Información de Orbita 9 (2017) Full 1080p Castellano

Datos de la película

  • Calidad: Full 1080p
  • Audio: Español DTS 5.1 BLURAY
  • Subtitulos: Español PGS
  • Resolución: 1920x1080p
  • Formato: MKV
  • Codec: H.264
  • Encoder: Dpelis
  • Mediainfo: Clic para Mostrar Datos Ver
  • Orbita 9 (2017) Full 1080 Castellano.mkv
    Format                      : Matroska
    Format version              : Version 4 / Version 2
    File size                   : 2.13 GiB
    Duration                    : 1 h 34 min
    Overall bit rate            : 3 218 kb/s
    Movie name                  : DPeliculasHDMega.ORG
    Encoded date                : UTC 2017-08-12 21:48:34 / UTC 2017-08-12T16:17:08Z
    Writing application         : mkvmerge v10.0.0 ('To Drown In You') 64bit
    Writing library             : libebml v1.3.4 + libmatroska v1.4.5 / Lavf57.7.2

    Video
    ID                          : 1
    Format                      : AVC
    Format/Info                 : Advanced Video Codec
    Format profile              : High@L4.1
    Format settings, CABAC      : Yes
    Format settings, ReFrames   : 4 frames
    Codec ID                    : V_MPEG4/ISO/AVC
    Duration                    : 1 h 34 min
    Bit rate                    : 1 645 kb/s
    Width                       : 1 920 pixels
    Height                      : 1 080 pixels
    Display aspect ratio        : 16:9
    Frame rate mode             : Constant
    Frame rate                  : 24.000 FPS
    Color space                 : YUV
    Chroma subsampling          : 4:2:0
    Bit depth                   : 8 bits
    Scan type                   : Progressive
    Bits/(Pixel*Frame)          : 0.033
    Stream size                 : 1.09 GiB (51%)
    Writing library             : x264 core 148 r2708 86b7198
    Encoding settings           : cabac=1 / ref=4 / deblock=1:0:0 / analyse=0x3:0x133 / me=esa / subme=10 / psy=1 / psy_rd=1.00:0.00 / mixed_ref=1 / me_range=24 / chroma_me=1 / trellis=2 / 8x8dct=1 / cqm=0 / deadzone=21,11 / fast_pskip=1 / chroma_qp_offset=-2 / threads=34 / lookahead_threads=5 / sliced_threads=0 / nr=0 / decimate=1 / interlaced=0 / bluray_compat=0 / constrained_intra=0 / bframes=8 / b_pyramid=2 / b_adapt=2 / b_bias=0 / direct=3 / weightb=1 / open_gop=0 / weightp=2 / keyint=240 / keyint_min=24 / scenecut=40 / intra_refresh=0 / rc_lookahead=60 / rc=crf / mbtree=1 / crf=20.0 / qcomp=0.60 / qpmin=0 / qpmax=69 / qpstep=4 / vbv_maxrate=62500 / vbv_bufsize=78125 / crf_max=0.0 / nal_hrd=none / filler=0 / ip_ratio=1.40 / aq=1:1.00
    Default                     : Yes
    Forced                      : No
    Color range                 : Limited
    Color primaries             : BT.709
    Transfer characteristics    : BT.709
    Matrix coefficients         : BT.709
    Statistics Tags Issue       : mkvmerge v10.0.0 ('To Drown In You') 64bit 2017-08-12 21:48:34 / mkvmerge v10.0.0 ('To Drown In You') 64bit 2017-08-12 21:48:34 / UTC 2017-08-12T16:17:08Z
    FromStats_BitRate           : 1693535
    FromStats_Duration          : 01:34:38.417000000
    FromStats_FrameCount        : 136282
    FromStats_StreamSize        : 1202074885

    Audio
    ID                          : 2
    Format                      : DTS
    Format/Info                 : Digital Theater Systems
    Mode                        : 16
    Format settings, Endianness : Big
    Codec ID                    : A_DTS
    Duration                    : 1 h 34 min
    Bit rate mode               : Constant
    Bit rate                    : 1 509 kb/s
    Channel(s)                  : 6 channels
    Channel positions           : Front: L C R, Side: L R, LFE
    Sampling rate               : 48.0 kHz
    Frame rate                  : 93.750 FPS (512 spf)
    Bit depth                   : 24 bits
    Compression mode            : Lossy
    Stream size                 : 1 021 MiB (47%)
    Title                       : Surround
    Language                    : Spanish
    Default                     : Yes
    Forced                      : No
    Statistics Tags Issue       : mkvmerge v10.0.0 ('To Drown In You') 64bit 2017-08-12 21:48:34 / mkvmerge v10.0.0 ('To Drown In You') 64bit 2017-08-12 21:48:34 / UTC 2017-08-12T16:17:08Z
    FromStats_BitRate           : 1508999
    FromStats_Duration          : 01:34:38.411000000
    FromStats_FrameCount        : 532351
    FromStats_StreamSize        : 1071090212

    Text #1
    ID                          : 3
    Format                      : PGS
    Muxing mode                 : zlib
    Codec ID                    : S_HDMV/PGS
    Codec ID/Info               : Picture based subtitle format used on BDs/HD-DVDs
    Language                    : Spanish
    Default                     : No
    Forced                      : No
    Statistics Tags Issue       : mkvmerge v10.0.0 ('To Drown In You') 64bit 2017-08-12 21:48:34 / mkvmerge v10.0.0 ('To Drown In You') 64bit 2017-08-12 21:48:34 / UTC 2017-08-12T16:17:08Z
    FromStats_BitRate           : 7351
    FromStats_Duration          : 01:31:00.917000000
    FromStats_FrameCount        : 1518
    FromStats_StreamSize        : 5018510

    Text #2
    ID                          : 4
    Format                      : PGS
    Muxing mode                 : zlib
    Codec ID                    : S_HDMV/PGS
    Codec ID/Info               : Picture based subtitle format used on BDs/HD-DVDs
    Language                    : Spanish
    Default                     : No
    Forced                      : No
    Statistics Tags Issue       : mkvmerge v10.0.0 ('To Drown In You') 64bit 2017-08-12 21:48:34 / mkvmerge v10.0.0 ('To Drown In You') 64bit 2017-08-12 21:48:34 / UTC 2017-08-12T16:17:08Z
    FromStats_BitRate           : 722
    FromStats_Duration          : 00:31:27.625000000
    FromStats_FrameCount        : 44
    FromStats_StreamSize        : 170458

    Text #3
    ID                          : 5
    Format                      : PGS
    Muxing mode                 : zlib
    Codec ID                    : S_HDMV/PGS
    Codec ID/Info               : Picture based subtitle format used on BDs/HD-DVDs
    Language                    : English
    Default                     : No
    Forced                      : No
    Statistics Tags Issue       : mkvmerge v10.0.0 ('To Drown In You') 64bit 2017-08-12 21:48:34 / mkvmerge v10.0.0 ('To Drown In You') 64bit 2017-08-12 21:48:34 / UTC 2017-08-12T16:17:08Z
    FromStats_BitRate           : 6722
    FromStats_Duration          : 01:28:34.042000000
    FromStats_FrameCount        : 1316
    FromStats_StreamSize        : 4465682

    Menu
    00:00:00.000                : :Chapter 1
    00:12:19.500                : :Chapter 2
    00:24:36.417                : :Chapter 3
    00:34:52.375                : :Chapter 4
    00:46:14.208                : :Chapter 5
    00:58:00.792                : :Chapter 6
    01:08:27.917                : :Chapter 7
    01:21:15.667                : :Chapter 8

  • Peso: 2.13 GB

Sinopsis

Helena (Clara Lago) lleva preparándose para una misión de supervivencia desde que nació. Aunque ella no lo sabe, forma parte de un ensayo científico de gran envergadura. Su destino cambiará cuando Álex (Álex González) se cruce en su vida y le haga descubrir una nueva realidad, totalmente inimaginable para ella. Pero la historia de amor en la que ambos se embarcan pondrá en riesgo un experimento de vital importancia para toda la humanidad.

Ficha técnica

Video trailer de la película

Enlaces de descarga

Rip de Bluray

Descargar Orbita 9 (2017) Full 1080p Castellano




Aportes de DPeliculasHDmega la pass es:dpeliculashdmega.org Aportes de CinemaniaHD la pass es:cinemaniahdd.com

Películas relacionadas

  • Arrow (2018) Temporada 07 AMZN Web-DL 1080p Latino

    2012
    Arrow (2018) Temporada 07 AMZN Web-DL 1080p Latino

    2.7 0h 42m 2012

    Descargar Arrow Temporada 07 AMZN Web-DL 1080p Latino; Mega, Google Drive. No ha habido escasez de llamadas...

    Director: Marc Guggenheim

    Género: Action & Adventure

    Actores: Stephen Amell

  • Tiger (2018) 1080p Latino

    2018
    Tiger (2018) 1080p Latino

    1.0 1h 40m 2018

    Descargar Tiger (2018) 1080p Latino, Mega, Google Drive. Tiger se inspira en la historia real de Pardeep...

    Director: Alister Grierson

    Género: Drama

    Actores: Prem Singh

  • Mi cena con Hervé (2018) Web-DL AMZN 1080p Latino

    2018
    Mi cena con Hervé (2018) Web-DL AMZN 1080p Latino

    5.0 1h 50m 2018

    Descargar Mi cena con Hervé (2018) Web-DL AMZN 1080p Latino, Mega, Google Drive. Biopic sobre el actor...

    Director: Sacha Gervasi

    Género: Drama

    Actores: Wallace Langham

Comentarios 2
  • seba - 13 agosto, 2017

    la subiran en latino ??

    • dpelis - 13 agosto, 2017

      si algun dia llege a salir. aunq lo dudo. ya q es pelicula de EspanA