×

¿Problemas para descargar con Mozilla, EDGE? Deshabilita la opción "Abrir vinculos en una pestaña nueva" tal como lo muestra ésta imagen.

Ophelia (2019) PLACEBO Full HD 1080p Latino

448 vistas

Información de Ophelia (2019) PLACEBO Full HD 1080p Latino

Datos de la película

  • Calidad: Full 1080p
  • Audio: Se especifica abajo de la Sinopsis
  • Subtitulos: Español Latino PGS - Ingles PGS
  • Resolución: 1920x1080p
  • Formato: MKV
  • Codec: H.264
  • Encoder: Melkor
  • Mediainfo: Clic para Mostrar Datos Ver
  • Ophelia (2018) PLACEBO 1080p Latino.mkv Format                      : Matroska Format version              : Version 4 File size                   : 4.50 GiB Duration                    : 1 h 46 min Overall bit rate            : 6 055 kb/s Movie name                  : Ophelia (2018) CinemaniaHDD.Net Encoded date                : UTC 2023-01-17 06:17:41 Writing application         : mkvmerge v56.1.0 ('My Friend') 64-bit Writing library             : libebml v1.4.2 + libmatroska v1.6.4 Attachments                 : CINEMANIAHD.png Video ID                          : 1 Format                      : AVC Format/Info                 : Advanced Video Codec Format profile              : High@L4.1 Format settings             : CABAC / 4 Ref Frames Format settings, CABAC      : Yes Format settings, Reference  : 4 frames Codec ID                    : V_MPEG4/ISO/AVC Duration                    : 1 h 46 min Bit rate                    : 2 971 kb/s Width                       : 1 920 pixels Height                      : 1 080 pixels Display aspect ratio        : 16:9 Frame rate mode             : Constant Frame rate                  : 23.976 (24000/1001) FPS Color space                 : YUV Chroma subsampling          : 4:2:0 Bit depth                   : 8 bits Scan type                   : Progressive Bits/(Pixel*Frame)          : 0.060 Stream size                 : 2.21 GiB (49%) Title                       : Full HD1080p [CinemaniaHDD] Writing library             : x264 core 157 r2935 545de2f Encoding settings           : cabac=1 / ref=4 / deblock=1:0:0 / analyse=0x3:0x133 / me=tesa / subme=11 / psy=1 / psy_rd=1.00:0.00 / mixed_ref=1 / me_range=24 / chroma_me=1 / trellis=2 / 8x8dct=1 / cqm=0 / deadzone=21,11 / fast_pskip=0 / chroma_qp_offset=-2 / threads=24 / lookahead_threads=6 / sliced_threads=0 / nr=0 / decimate=1 / interlaced=0 / bluray_compat=0 / constrained_intra=0 / bframes=16 / b_pyramid=2 / b_adapt=2 / b_bias=0 / direct=3 / weightb=1 / open_gop=0 / weightp=2 / keyint=240 / keyint_min=24 / scenecut=40 / intra_refresh=0 / rc_lookahead=60 / rc=crf / mbtree=1 / crf=20.0 / qcomp=0.60 / qpmin=0 / qpmax=69 / qpstep=4 / vbv_maxrate=62500 / vbv_bufsize=78125 / crf_max=0.0 / nal_hrd=none / filler=0 / ip_ratio=1.40 / aq=1:1.00 Default                     : Yes Forced                      : Yes Color range                 : Limited Color primaries             : BT.709 Transfer characteristics    : BT.709 Matrix coefficients         : BT.709 Audio #1 ID                          : 2 Format                      : AC-3 Format/Info                 : Audio Coding 3 Commercial name             : Dolby Digital Codec ID                    : A_AC3 Duration                    : 1 h 46 min Bit rate mode               : Constant Bit rate                    : 256 kb/s Channel(s)                  : 2 channels Channel layout              : L R Sampling rate               : 48.0 kHz Frame rate                  : 31.250 FPS (1536 SPF) Compression mode            : Lossy Stream size                 : 195 MiB (4%) Title                       : Español Latino Dub IFC [CinemaniaHDD] Language                    : Spanish Service kind                : Complete Main Default                     : No Forced                      : No Audio #2 ID                          : 3 Format                      : AC-3 Format/Info                 : Audio Coding 3 Commercial name             : Dolby Digital Codec ID                    : A_AC3 Duration                    : 1 h 46 min Bit rate mode               : Constant Bit rate                    : 640 kb/s Channel(s)                  : 6 channels Channel layout              : L R C LFE Ls Rs Sampling rate               : 48.0 kHz Frame rate                  : 31.250 FPS (1536 SPF) Compression mode            : Lossy Stream size                 : 487 MiB (11%) Title                       : Español Latino Dub UNI AC3 [CinemaniaHDD] Language                    : Spanish Service kind                : Complete Main Default                     : Yes Forced                      : Yes Audio #3 ID                          : 4 Format                      : E-AC-3 Format/Info                 : Enhanced AC-3 Commercial name             : Dolby Digital Plus Codec ID                    : A_EAC3 Duration                    : 1 h 46 min Bit rate mode               : Constant Bit rate                    : 640 kb/s Channel(s)                  : 6 channels Channel layout              : L R C LFE Ls Rs Sampling rate               : 48.0 kHz Frame rate                  : 31.250 FPS (1536 SPF) Compression mode            : Lossy Stream size                 : 487 MiB (11%) Title                       : Español Latino Dub UNI EAC3 [CinemaniaHDD] Language                    : Spanish Service kind                : Complete Main Default                     : No Forced                      : No Audio #4 ID                          : 5 Format                      : DTS Format/Info                 : Digital Theater Systems Codec ID                    : A_DTS Duration                    : 1 h 46 min Bit rate mode               : Constant Bit rate                    : 1 509 kb/s Channel(s)                  : 6 channels Channel layout              : C L R Ls Rs LFE Sampling rate               : 48.0 kHz Frame rate                  : 93.750 FPS (512 SPF) Bit depth                   : 24 bits Compression mode            : Lossy Stream size                 : 1.12 GiB (25%) Title                       : Ingles [CinemaniaHDD] Language                    : English Default                     : No Forced                      : No Text #1 ID                          : 6 Format                      : PGS Muxing mode                 : zlib Codec ID                    : S_HDMV/PGS Codec ID/Info               : Picture based subtitle format used on BDs/HD-DVDs Duration                    : 1 h 43 min Bit rate                    : 27.2 kb/s Count of elements           : 1785 Stream size                 : 20.2 MiB (0%) Title                       : Español-PGS [CinemaniaHDD] Language                    : Spanish Default                     : No Forced                      : No Text #2 ID                          : 7 Format                      : PGS Muxing mode                 : zlib Codec ID                    : S_HDMV/PGS Codec ID/Info               : Picture based subtitle format used on BDs/HD-DVDs Duration                    : 1 h 45 min Bit rate                    : 28.3 kb/s Count of elements           : 2010 Stream size                 : 21.3 MiB (0%) Title                       : Ingles-PGS [CinemaniaHDD] Language                    : English Default                     : No Forced                      : No Text #3 ID                          : 8 Format                      : UTF-8 Codec ID                    : S_TEXT/UTF8 Codec ID/Info               : UTF-8 Plain Text Duration                    : 5 s 0 ms Bit rate                    : 22 b/s Count of elements           : 1 Stream size                 : 14.0 Bytes (0%) Title                       : Forzados-SRT [CinemaniaHDD] Language                    : Spanish Default                     : Yes Forced                      : Yes Text #4 ID                          : 9 Format                      : UTF-8 Codec ID                    : S_TEXT/UTF8 Codec ID/Info               : UTF-8 Plain Text Duration                    : 1 h 38 min Bit rate                    : 41 b/s Count of elements           : 977 Stream size                 : 29.9 KiB (0%) Title                       : Español-SRT [CinemaniaHDD] Language                    : Spanish Default                     : No Forced                      : No Menu 00:00:00.000                : Chapter 1 00:08:51.656                : Chapter 2 00:20:56.213                : Chapter 3 00:29:32.729                : Chapter 4 00:37:39.382                : Chapter 5 00:47:28.179                : Chapter 6 00:56:32.472                : Chapter 7 01:08:10.295                : Chapter 8 01:18:16.942                : Chapter 9 01:26:01.490                : Chapter 10 01:34:09.894                : Chapter 11 01:39:57.783                : Chapter 12
  • Peso: 4.50 GiB

Sinopsis

Descargar Ophelia (2019) PLACEBO Full HD 1080p Latino. Ophelia, es una joven adolescente e impetuosa que reside en el castillo de Elsinore como una de las personas de confianza de la Reina Gertrude. Su personalidad no pasa desapercibida ante los ojos del Príncipe Hamlet, a quien conquista rápidamente.

Español Latino AC3 2.0 Dub IFC Films – AC3 & EAC3 5.1 Dub Universal – Ingles DTS 5.1 Bluray
Actualizado con mejor Audio y los 2 doblajes Latinos!!

Ficha técnica

Video trailer de la película

Enlaces de descarga

Rip de Bluray

Descargar Ophelia (2019) PLACEBO Full HD 1080p Latino




Aportes de DPeliculasHDmega la pass es:dpeliculashdmega.org Aportes de CinemaniaHD la pass es:cinemaniahdd.com

Películas relacionadas

  • Corazón de tinta (2008) Full HD 1080p Latino

    Corazón de tinta (2008) Full HD 1080p Latino

    2008
    Corazón de tinta (2008) Full HD 1080p Latino

    1h 46m 2008

    Descargar Corazón de tinta (2008) Full HD 1080p Latino. Mortimer “Mo” Folchart y su hija de 12 años,...

    Director: Sharon Mansfield

    Género: Aventura

    Actores: Terry Cavanagh

  • Juego de espías (2001) Full HD 1080p Latino

    Juego de espías (2001) Full HD 1080p Latino

    2001
    Juego de espías (2001) Full HD 1080p Latino

    2h 6m 2001

    Descargar Juego de espías (2001) Full HD 1080p Latino. Corre el año 1991, y al veterano agente de la...

    Director: Tony Scott

    Género: Acción

    Actores: Zsolt Zágoni

  • Hombre de familia (2000) REMUX 1080p Latino

    Hombre de familia (2000) REMUX 1080p Latino

    2000
    Hombre de familia (2000) REMUX 1080p Latino

    2h 1m 2000

    Descargar Hombre de familia (2000) REMUX 1080p Latino. Jack Campbell es un egocéntrico broker de Wall...

    Director: Robert Schroer

    Género: Comedia

    Actores: Wass Stevens

descargar Ophelia (2019) PLACEBO Full HD 1080p Latino Full 1080p 1080p gratis, Ophelia (2019) PLACEBO Full HD 1080p Latino Full 1080p mega 1 link, Ophelia (2019) PLACEBO Full HD 1080p Latino Full 1080p pelicula completa, descargar Ophelia (2019) PLACEBO Full HD 1080p Latino Full 1080p gratis en mega.

Ophelia (2019) PLACEBO Full HD 1080p Latino pelicula full hd, Ophelia (2019) PLACEBO Full HD 1080p Latino mega latino, Ophelia (2019) PLACEBO Full HD 1080p Latino 4k latino, Ophelia (2019) PLACEBO Full HD 1080p Latino pelicula completa, Ophelia (2019) PLACEBO Full HD 1080p Latino descargar gratis, descargar Ophelia (2019) PLACEBO Full HD 1080p Latino pelicula latino, Ophelia (2019) PLACEBO Full HD 1080p Latino 1 link mega, Ophelia (2019) PLACEBO Full HD 1080p Latino 1 link google drive, Ophelia (2019) PLACEBO Full HD 1080p Latino hd 1080p latino.
Comentarios 0