×

¿Problemas para descargar con Mozilla, EDGE? Deshabilita la opción "Abrir vinculos en una pestaña nueva" tal como lo muestra ésta imagen.

Operation Varsity Blues. The College Admissions Scandal (2021) NF WEB-DL 1080p Latino

231 vistas

Información de Operation Varsity Blues. The College Admissions Scandal (2021) NF WEB-DL 1080p Latino

Datos de la película

  • Calidad: WEBDL
  • Audio: Español Latino AC3 5.1 Netflix - Ingles AC3 5.1 Netflix
  • Subtitulos: Español Latino SRT- FORZADOS SRT
  • Resolución: 1920x1080
  • Formato: MKV
  • Codec: H.264
  • Encoder: cinemaniahdd
  • Mediainfo: Clic para Mostrar Datos Ver
  • Operation Varsity Blues. The College Admissions Scandal (2021) NF WEB-DL 1080p Latino [CNMNHDD].mkv
    Format                      : Matroska
    Format version              : Version 4
    File size                   : 4.55 GiB
    Duration                    : 1 h 40 min
    Overall bit rate mode       : Variable
    Overall bit rate            : 6 499 kb/s
    Movie name                  : Operation Varsity Blues. The College Admissions Scandal (2021) - CinemaniaHDD.Net
    Encoded date                : UTC 2021-03-18 09:40:01
    Writing application         : mkvmerge v49.0.0 ('Sick Of Losing Soulmates') 64-bit
    Writing library             : libebml v1.4.0 + libmatroska v1.6.1

    Video
    ID                          : 1
    Format                      : AVC
    Format/Info                 : Advanced Video Codec
    Format profile              : Main@L4
    Format settings             : CABAC / 3 Ref Frames
    Format settings, CABAC      : Yes
    Format settings, Reference  : 3 frames
    Codec ID                    : V_MPEG4/ISO/AVC
    Duration                    : 1 h 40 min
    Bit rate mode               : Variable
    Bit rate                    : 5 800 kb/s
    Maximum bit rate            : 8 700 kb/s
    Width                       : 1 920 pixels
    Height                      : 1 080 pixels
    Display aspect ratio        : 16:9
    Frame rate mode             : Constant
    Frame rate                  : 23.976 (24000/1001) FPS
    Color space                 : YUV
    Chroma subsampling          : 4:2:0
    Bit depth                   : 8 bits
    Scan type                   : Progressive
    Bits/(Pixel*Frame)          : 0.117
    Stream size                 : 4.01 GiB (88%)
    Title                       : CinemaniaHDD
    Writing library             : x264 core 148 r2722 1b0121b
    Encoding settings           : cabac=1 / ref=3 / deblock=1:0:0 / analyse=0x1:0x111 / me=umh / subme=10 / psy=1 / psy_rd=1.00:0.00 / mixed_ref=1 / me_range=24 / chroma_me=1 / trellis=2 / 8x8dct=0 / cqm=0 / deadzone=21,11 / fast_pskip=1 / chroma_qp_offset=-2 / threads=8 / lookahead_threads=1 / sliced_threads=0 / nr=0 / decimate=1 / interlaced=0 / bluray_compat=0 / stitchable=1 / constrained_intra=0 / bframes=2 / b_pyramid=0 / b_adapt=2 / b_bias=0 / direct=3 / weightb=1 / open_gop=0 / weightp=2 / keyint=250 / keyint_min=23 / scenecut=0 / intra_refresh=0 / rc_lookahead=48 / rc=2pass / mbtree=1 / bitrate=5800 / ratetol=1.0 / qcomp=0.50 / qpmin=6 / qpmax=51 / qpstep=4 / cplxblur=20.0 / qblur=0.5 / vbv_maxrate=8700 / vbv_bufsize=11600 / nal_hrd=vbr / filler=0 / ip_ratio=1.40 / aq=1:1.00
    Default                     : Yes
    Forced                      : No

    Audio #1
    ID                          : 2
    Format                      : AC-3
    Format/Info                 : Audio Coding 3
    Commercial name             : Dolby Digital
    Codec ID                    : A_AC3
    Duration                    : 1 h 40 min
    Bit rate mode               : Constant
    Bit rate                    : 384 kb/s
    Channel(s)                  : 6 channels
    Channel layout              : L R C LFE Ls Rs
    Sampling rate               : 48.0 kHz
    Frame rate                  : 31.250 FPS (1536 SPF)
    Compression mode            : Lossy
    Stream size                 : 275 MiB (6%)
    Title                       : Español latino [CinemaniaHDD]
    Language                    : Spanish
    Service kind                : Complete Main
    Default                     : Yes
    Forced                      : No

    Audio #2
    ID                          : 3
    Format                      : AC-3
    Format/Info                 : Audio Coding 3
    Commercial name             : Dolby Digital
    Codec ID                    : A_AC3
    Duration                    : 1 h 40 min
    Bit rate mode               : Constant
    Bit rate                    : 384 kb/s
    Channel(s)                  : 6 channels
    Channel layout              : L R C LFE Ls Rs
    Sampling rate               : 48.0 kHz
    Frame rate                  : 31.250 FPS (1536 SPF)
    Compression mode            : Lossy
    Stream size                 : 275 MiB (6%)
    Title                       : Inglés [CinemaniaHDD]
    Language                    : English
    Service kind                : Complete Main
    Default                     : No
    Forced                      : No

    Text #1
    ID                          : 4
    Format                      : UTF-8
    Codec ID                    : S_TEXT/UTF8
    Codec ID/Info               : UTF-8 Plain Text
    Duration                    : 1 h 34 min
    Bit rate                    : 20 b/s
    Count of elements           : 328
    Stream size                 : 14.2 KiB (0%)
    Title                       : Forzados [CinemaniaHDD]
    Language                    : Spanish
    Default                     : Yes
    Forced                      : Yes

    Text #2
    ID                          : 5
    Format                      : UTF-8
    Codec ID                    : S_TEXT/UTF8
    Codec ID/Info               : UTF-8 Plain Text
    Duration                    : 1 h 39 min
    Bit rate                    : 102 b/s
    Count of elements           : 1699
    Stream size                 : 74.3 KiB (0%)
    Title                       : Español latino [CinemaniaHDD]
    Language                    : Spanish
    Default                     : No
    Forced                      : No

     

  • Peso: 4.55 GiB

Sinopsis

Este documental investiga al cerebro detrás del fraude que logró que hijos de ricos y famosos ingresaran en prestigiosas universidades de Estados Unidos.

Ficha técnica

  • Titulo original: Operation Varsity Blues: The College Admissions Scandal
  • Fecha de lanzamiento: 17-03-2021 (United States of America)
  • Director: Chris Smith
  • Género: Crimen, Documental, Netflix

Video trailer de la película

Enlaces de descarga

Rip de Bluray

Descargar Operation Varsity Blues. The College Admissions Scandal (2021) NF WEB-DL 1080p Latino




Aportes de DPeliculasHDmega la pass es:dpeliculashdmega.org Aportes de CinemaniaHD la pass es:cinemaniahdd.com
Guardado en : Crimen , Documental , Netflix

Películas relacionadas

descargar Operation Varsity Blues. The College Admissions Scandal (2021) NF WEB-DL 1080p Latino WEBDL 1080p gratis, Operation Varsity Blues. The College Admissions Scandal (2021) NF WEB-DL 1080p Latino WEBDL mega 1 link, Operation Varsity Blues. The College Admissions Scandal (2021) NF WEB-DL 1080p Latino WEBDL pelicula completa, descargar Operation Varsity Blues. The College Admissions Scandal (2021) NF WEB-DL 1080p Latino WEBDL gratis en mega.

Operation Varsity Blues. The College Admissions Scandal (2021) NF WEB-DL 1080p Latino pelicula full hd, Operation Varsity Blues. The College Admissions Scandal (2021) NF WEB-DL 1080p Latino mega latino, Operation Varsity Blues. The College Admissions Scandal (2021) NF WEB-DL 1080p Latino 4k latino, Operation Varsity Blues. The College Admissions Scandal (2021) NF WEB-DL 1080p Latino pelicula completa, Operation Varsity Blues. The College Admissions Scandal (2021) NF WEB-DL 1080p Latino descargar gratis, descargar Operation Varsity Blues. The College Admissions Scandal (2021) NF WEB-DL 1080p Latino pelicula latino, Operation Varsity Blues. The College Admissions Scandal (2021) NF WEB-DL 1080p Latino 1 link mega, Operation Varsity Blues. The College Admissions Scandal (2021) NF WEB-DL 1080p Latino 1 link google drive, Operation Varsity Blues. The College Admissions Scandal (2021) NF WEB-DL 1080p Latino hd 1080p latino.
Comentarios 0