×

¿Problemas para descargar con Mozilla, EDGE? Deshabilita la opción "Abrir vinculos en una pestaña nueva" tal como lo muestra ésta imagen.

Operacion Overlord (2018) 4K UHD HDR Latino

1.569 vistas

Información de Operacion Overlord (2018) 4K UHD HDR Latino

overlord 50466 poster

Datos de la película

  • Calidad: 4K HDR
  • Audio: Español Latino AC3 5.1 BLURAY - Ingles AC3 5.1 BLURAY
  • Subtitulos: Español Latino PGS - Ingles PGS
  • Resolución: 3840x1600p
  • Formato: MKV
  • Codec: HEVC
  • Encoder: CinefiloCool
  • Mediainfo: Clic para Mostrar Datos Ver
  • Operacion Overlord (2018) UHD HDR Latino.mkv
    Format                      : Matroska
    Format version              : Version 4
    File size                   : 20.1 GiB
    Duration                    : 1 h 49 min
    Overall bit rate            : 26.3 Mb/s
    Movie name                  : CinemaniaHDD.Net
    Encoded date                : UTC 2019-03-18 23:02:25
    Writing application         : mkvmerge v30.1.0 ('Forever And More') 64-bit
    Writing library             : libebml v1.3.6 + libmatroska v1.4.9

    Video
    ID                          : 1
    Format                      : HEVC
    Format/Info                 : High Efficiency Video Coding
    Format profile              : Main 10@L5.1@Main
    Codec ID                    : V_MPEGH/ISO/HEVC
    Duration                    : 1 h 49 min
    Bit rate                    : 25.0 Mb/s
    Width                       : 3 840 pixels
    Height                      : 1 600 pixels
    Display aspect ratio        : 2.40:1
    Frame rate mode             : Constant
    Frame rate                  : 23.976 (24000/1001) FPS
    Color space                 : YUV
    Chroma subsampling          : 4:2:0 (Type 2)
    Bit depth                   : 10 bits
    Bits/(Pixel*Frame)          : 0.170
    Stream size                 : 19.1 GiB (95%)
    Title                       : 2160p HDR [Bluray]
    Writing library             : x265 2.6:[Windows][GCC 7.3.0][64 bit] 10bit
    Encoding settings           : cpuid=1173503 / frame-threads=3 / numa-pools=8 / wpp / no-pmode / no-pme / no-psnr / no-ssim / log-level=2 / input-csp=1 / input-res=3840x1600 / interlace=0 / total-frames=0 / level-idc=51 / high-tier=1 / uhd-bd=0 / ref=3 / no-allow-non-conformance / no-repeat-headers / annexb / no-aud / no-hrd / info / hash=0 / no-temporal-layers / open-gop / min-keyint=24 / keyint=240 / bframes=4 / b-adapt=2 / b-pyramid / bframe-bias=0 / rc-lookahead=20 / lookahead-slices=8 / scenecut=40 / no-intra-refresh / ctu=64 / min-cu-size=8 / no-rect / no-amp / max-tu-size=32 / tu-inter-depth=1 / tu-intra-depth=1 / limit-tu=0 / rdoq-level=0 / dynamic-rd=0.00 / no-ssim-rd / signhide / no-tskip / nr-intra=0 / nr-inter=0 / no-constrained-intra / strong-intra-smoothing / max-merge=2 / limit-refs=3 / no-limit-modes / me=1 / subme=2 / merange=57 / temporal-mvp / weightp / no-weightb / no-analyze-src-pics / deblock=0:0 / sao / no-sao-non-deblock / rd=3 / no-early-skip / rskip / no-fast-intra / no-tskip-fast / no-cu-lossless / no-b-intra / no-splitrd-skip / rdpenalty=0 / psy-rd=2.00 / psy-rdoq=0.00 / no-rd-refine / analysis-reuse-mode=0 / no-lossless / cbqpoffs=0 / crqpoffs=0 / rc=abr / bitrate=25000 / qcomp=0.60 / qpstep=4 / stats-write=0 / stats-read=2 / cplxblur=20.0 / qblur=0.5 / ipratio=1.40 / pbratio=1.30 / aq-mode=1 / aq-strength=1.00 / cutree / zone-count=0 / no-strict-cbr / qg-size=32 / no-rc-grain / qpmax=69 / qpmin=0 / no-const-vbv / sar=1 / overscan=0 / videoformat=5 / range=0 / colorprim=9 / transfer=0 / colormatrix=9 / chromaloc=1 / chromaloc-top=2 / chromaloc-bottom=2 / display-window=0 / max-cll=0,0 / min-luma=0 / max-luma=1023 / log2-max-poc-lsb=8 / vui-timing-info / vui-hrd-info / slices=1 / no-opt-qp-pps / no-opt-ref-list-length-pps / no-multi-pass-opt-rps / scenecut-bias=0.05 / no-opt-cu-delta-qp / no-aq-motion / no-hdr / no-hdr-opt / no-dhdr10-opt / analysis-reuse-level=5 / scale-factor=0 / refine-intra=0 / refine-inter=0 / refine-mv=0 / no-limit-sao / ctu-info=0 / no-lowpass-dct / refine-mv-type=0 / copy-pic=1
    Default                     : Yes
    Forced                      : No
    Color range                 : Limited
    Color primaries             : BT.2020
    Matrix coefficients         : BT.2020 non-constant

    Audio #1
    ID                          : 2
    Format                      : AC-3
    Format/Info                 : Audio Coding 3
    Commercial name             : Dolby Digital
    Codec ID                    : A_AC3
    Duration                    : 1 h 49 min
    Bit rate mode               : Constant
    Bit rate                    : 640 kb/s
    Channel(s)                  : 6 channels
    Channel layout              : L R C LFE Ls Rs
    Sampling rate               : 48.0 kHz
    Frame rate                  : 31.250 FPS (1536 SPF)
    Bit depth                   : 16 bits
    Compression mode            : Lossy
    Delay relative to video     : -6 ms
    Stream size                 : 502 MiB (2%)
    Title                       : AC3_5.1_Bluray_Esp
    Language                    : Spanish
    Service kind                : Complete Main
    Default                     : Yes
    Forced                      : Yes

    Audio #2
    ID                          : 3
    Format                      : AC-3
    Format/Info                 : Audio Coding 3
    Commercial name             : Dolby Digital
    Codec ID                    : A_AC3
    Duration                    : 1 h 49 min
    Bit rate mode               : Constant
    Bit rate                    : 640 kb/s
    Channel(s)                  : 6 channels
    Channel layout              : L R C LFE Ls Rs
    Sampling rate               : 48.0 kHz
    Frame rate                  : 31.250 FPS (1536 SPF)
    Bit depth                   : 16 bits
    Compression mode            : Lossy
    Delay relative to video     : -1 ms
    Stream size                 : 502 MiB (2%)
    Title                       : AC3_5.1_Bluray_Eng
    Language                    : English
    Service kind                : Complete Main
    Default                     : No
    Forced                      : No

    Text #1
    ID                          : 4
    Format                      : PGS
    Muxing mode                 : zlib
    Codec ID                    : S_HDMV/PGS
    Codec ID/Info               : Picture based subtitle format used on BDs/HD-DVDs
    Duration                    : 1 h 22 min
    Bit rate                    : 790 b/s
    Count of elements           : 188
    Stream size                 : 480 KiB (0%)
    Title                       : Sub_Forzados [PGS]
    Language                    : Spanish
    Default                     : Yes
    Forced                      : Yes

    Text #2
    ID                          : 5
    Format                      : PGS
    Muxing mode                 : zlib
    Codec ID                    : S_HDMV/PGS
    Codec ID/Info               : Picture based subtitle format used on BDs/HD-DVDs
    Duration                    : 1 h 49 min
    Bit rate                    : 7 433 b/s
    Count of elements           : 1722
    Stream size                 : 5.82 MiB (0%)
    Title                       : Sub_Esp [PGS]
    Language                    : Spanish
    Default                     : No
    Forced                      : No

    Text #3
    ID                          : 6
    Format                      : PGS
    Muxing mode                 : zlib
    Codec ID                    : S_HDMV/PGS
    Codec ID/Info               : Picture based subtitle format used on BDs/HD-DVDs
    Duration                    : 1 h 42 min
    Bit rate                    : 8 623 b/s
    Count of elements           : 2034
    Stream size                 : 6.30 MiB (0%)
    Title                       : Sub_Eng [PGS]
    Language                    : English
    Default                     : No
    Forced                      : No

  • Peso: 20.1 GiB

Sinopsis

Descargar Operacion Overlord (2018) 4K UHD HDR Latino, Mega, Google Drive. La víspera del Día D, un grupo de soldados aliados es enviado a la Francia ocupada para completar una misión esencial para la victoria. Sobre el terreno, descubren un laboratorio en el que se llevan a cabo descabellados experimentos. La formación que han recibido no les ha preparado para enfrentarse a soldados manipulados genéticamente. Overlord se suma a la insigne lista de producciones de Bad Robot, la revolucionaria compañía de J. J. Abrams.

Ficha técnica

Video trailer de la película

Enlaces de descarga

Rip de Bluray

Descargar Operacion Overlord (2018) 4K UHD HDR Latino




Aportes de DPeliculasHDmega la pass es:dpeliculashdmega.org Aportes de CinemaniaHD la pass es:cinemaniahdd.com

Películas relacionadas

  • La Guerra Del Futuro (2022) NF WEB-DL 1080p Latino

    La Guerra Del Futuro (2022) NF WEB-DL 1080p Latino

    2022
    La Guerra Del Futuro (2022) NF WEB-DL 1080p Latino

    1h 41m 2022

    Descargar La Guerra Del Futuro (2022) NF WEB-DL 1080p Latino. Tras la caída de un meteorito que alberga...

    Director: Ng Yuen-fai

    Género: Acción

    Actores: Tse Kwan-Ho

  • Observada (2022) HD 1080p Latino

    Observada (2022) HD 1080p Latino

    2022
    Observada (2022) HD 1080p Latino

    1h 35m 2022

    Descargar Observada (2022) HD 1080p Latino. Una joven se muda a un nuevo apartamento con su prometido...

    Director: Chloe Okuno

    Género: HD 1080p

    Actores: Tudor Petruț

  • Observada (2022) PLACEBO Full HD 1080p Latino

    Observada (2022) PLACEBO Full HD 1080p Latino

    2022
    Observada (2022) PLACEBO Full HD 1080p Latino

    1h 35m 2022

    Descargar Observada (2022) PLACEBO Full HD 1080p Latino. Una joven se muda a un nuevo apartamento con...

    Director: Chloe Okuno

    Género: FULL 1080p Plateadas

    Actores: Tudor Petruț

  • Observada (2022) REMUX 1080p Latino

    Observada (2022) REMUX 1080p Latino

    2022
    Observada (2022) REMUX 1080p Latino

    1h 35m 2022

    Descargar Observada (2022) REMUX 1080p Latino. Una joven se muda a un nuevo apartamento con su prometido...

    Director: Chloe Okuno

    Género: Misterio

    Actores: Tudor Petruț

  • Wifelike (2022) WEB-DL 1080p Latino

    Wifelike (2022) WEB-DL 1080p Latino

    2022
    Wifelike (2022) WEB-DL 1080p Latino

    1h 46m 2022

    Descargar Wifelike (2022) WEB-DL 1080p Latino. La humana artificial Meredith es asignada como acompañante...

    Director: James Bird

    Género: Ciencia ficción

    Actores: Stephen Lobo

descargar Operacion Overlord (2018) 4K UHD HDR Latino 4K HDR 1080p gratis, Operacion Overlord (2018) 4K UHD HDR Latino 4K HDR mega 1 link, Operacion Overlord (2018) 4K UHD HDR Latino 4K HDR pelicula completa, descargar Operacion Overlord (2018) 4K UHD HDR Latino 4K HDR gratis en mega.

Operacion Overlord (2018) 4K UHD HDR Latino pelicula full hd, Operacion Overlord (2018) 4K UHD HDR Latino mega latino, Operacion Overlord (2018) 4K UHD HDR Latino 4k latino, Operacion Overlord (2018) 4K UHD HDR Latino pelicula completa, Operacion Overlord (2018) 4K UHD HDR Latino descargar gratis, descargar Operacion Overlord (2018) 4K UHD HDR Latino pelicula latino, Operacion Overlord (2018) 4K UHD HDR Latino 1 link mega, Operacion Overlord (2018) 4K UHD HDR Latino 1 link google drive, Operacion Overlord (2018) 4K UHD HDR Latino hd 1080p latino.
Comentarios 0